[ Сегодня идет свободное скачивание без начисления Download ]


Статистика раздачи
Нет
 
   
 
Top  
 
 
Джерри Магуайер / Jerry Maguire (1996) UHDTV 2160p- Год выпуска: 1996
Страна: США | Gracie Films, TriStar Pictures
Жанр: Драма, мелодрама, комедия, спорт
Описание фильма:
Уволенный за критику начальства, спортивный агент Джерри Магуайер решает создать свою фирму. Лишь два человека верят в него — влюбленная в Магуайера Дороти и Род Тидвелл — талантливый спортсмен, но нахальный и крайне злобный тип.
Но обстоятельства не останавливают Джерри — он уверен в себе и твердо знает, чего хочет. И все могло бы быть как нельзя лучше, если бы не его бывшие коллеги. Для них все методы хороши — особенно если нужно доказать правдолюбцу, кто правит бал. И Джерри Магуайер знает — если он проиграет, то встать на ноги ему не удастся никогда.
Режиссер: Кэмерон Кроу
Актеры: Том Круз, Рене Зеллвегер, Кьюба Гудинг мл., Келли Престон, Реджина Кинг, Бонни Хант, Джей Мор, Джерри О’Коннелл, Бо Бриджес, Джонатан Липники ...
Продолжительность: 02:13:46
Качество видео: UHDTV 2160p (Источник: Sky UHD)
Перевод: Дублированный
Язык субтитров: Корейский
Вид субтитров: Вшитые (не отключаемые / hardsub)

Дата мировой премьеры: 6 декабря 1996
Дата выхода DVD релиза: 16 июля 1997, «Columbia/Sony»
Дата выхода Blu-Ray релиза: 11 декабря 2008, «Columbia/Sony»
Видео: HEVC/H.265, 3840x2160 (16:9), 59,940 fps, ~27 Mbps
Aудио#1: 48 kHz, AC3, 3 ch, 640 kbps | Русский DUB, Blu-ray CEE
Aудио#2: 48 kHz, DTS-HD MA 5.1, ~2324 kbps | Английский Blu-ray Mastered in 4K
Aудио#3: 48 kHz, AC3, 2 ch, 192 kbps | Английские комментарии (director Cameron Crowe and actors Tom Cruise, Renee Zellweger and Cuba Gooding Jr.)

MediaInfo:

Общее
Идентификатор : 1 (0x1)
Полное имя : D:\Dowloands\Видео\Jerry.Maguire.1996.2160p.UHDTV.Rus.2xEng.BtttS-ULTRAHDCLUB.ts
Формат : MPEG-TS
Размер файла : 27,3 Гбайт
Продолжительность : 2 ч. 13 м.
Битрейт : 27 Мбит/сек
Режим общего битрейта : Переменный
Общий поток : 29,2 Мбит/сек
Максимальный общий битрейт : 35,5 Мбит/сек
Видео
Идентификатор : 4113 (0x1011)
Идентификатор меню : 1 (0x1)
Формат : HEVC
Формат/Информация : High Efficiency Video Coding
Профиль формата : Main [email protected]@Main
Идентификатор кодека : 6
Продолжительность : 2 ч. 13 м.
Ширина : 3840 пикселей
Высота : 2160 пикселей
Соотношение сторон : 16:9
Частота кадров : 59,940 кадров/сек
Цветовое пространство : YUV
Субдискретизация насыщенности : 4:2:0
Битовая глубина : 10 бит
Аудио #1
Идентификатор : 4352 (0x1100)
Идентификатор меню : 1 (0x1)
Формат : AC-3
Формат/Информация : Audio Coding 3
Расширение режима : CM (complete main)
Параметр Endianness формата : Big
Идентификатор кодека : 129
Продолжительность : 2 ч. 13 м.
Вид битрейта : Постоянный
Битрейт : 640 Кбит/сек
Каналы : 6 каналов
Расположение каналов : Front: L C R, Side: L R, LFE
Частота : 48,0 КГц
Метод сжатия : С потерями
Размер потока : 612 Мбайт (2%)
Язык : Russian
Аудио #2
Идентификатор : 4353 (0x1101)
Идентификатор меню : 1 (0x1)
Формат : DTS
Формат/Информация : Digital Theater Systems
Профиль формата : MA / Core
Режим : 16
Параметр Endianness формата : Big
Режим смешивания : Stream extension
Идентификатор кодека : 134
Продолжительность : 2 ч. 13 м.
Вид битрейта : Переменный
Битрейт : Неизвестно / 1509 Кбит/сек
Каналы : 6 каналов
Расположение каналов : Front: L C R, Side: L R, LFE
Частота : 48,0 КГц
Битовая глубина : 16 бит
Метод сжатия : Без потерь / Lossy
Задержка видео : 21 мс.
Язык : English
Аудио #3
Идентификатор : 4354 (0x1102)
Идентификатор меню : 1 (0x1)
Формат : AC-3
Формат/Информация : Audio Coding 3
Расширение режима : CM (complete main)
Параметр Endianness формата : Big
Идентификатор кодека : 129
Продолжительность : 2 ч. 13 м.
Вид битрейта : Постоянный
Битрейт : 192 Кбит/сек
Каналы : 2 канала
Расположение каналов : Front: L R
Частота : 48,0 КГц
Метод сжатия : С потерями
Размер потока : 184 Мбайт (1%)
Язык : English

Знаете ли вы, что...

Премия «Оскар» за Лучшую мужскую роль второго плана ( Кьюба Гудинг мл. ), 1997 г.
• По словам Кэмерона Кроу, он утвердил Зеллвегер потому, что она была единственной претенденткой на роль Дороти, которая точно не стала бы флиртовать с Томом Крузом.
Скриншоты:

[Цитировать]



Показать сообщения:    

Текущее время: 04-Дек 21:27

Часовой пояс: UTC + 3


Вы не можете начинать темы
Вы не можете отвечать на сообщения
Вы не можете редактировать свои сообщения
Вы не можете удалять свои сообщения
Вы не можете голосовать в опросах
Вы не можете прикреплять файлы к сообщениям
Вы не можете скачивать файлы

!ВНИМАНИЕ!
Сайт не предоставляет электронные версии произведений, а занимается лишь коллекционированием и каталогизацией ссылок, присылаемых и публикуемых на форуме нашими читателями. Если вы являетесь правообладателем какого-либо представленного материала и не желаете, чтобы ссылка на него находилась в нашем каталоге, свяжитесь с нами, и мы незамедлительно удалим ее. Файлы для обмена на трекере предоставлены пользователями сайта, и администрация не несет ответственности за их содержание. Просьба не заливать файлы, защищенные авторскими правами, а также файлы нелегального содержания!