[ Сегодня идет свободное скачивание без начисления Download ]


Статистика раздачи
Нет
 
   
 
Top  
 
 
Город потерянных детей / La cité des enfants perdus (1995) BDRip [H.264] [hand made 60fps]- Производство: Франция, Германия, Испания
Жанр: Фантастика, Фэнтези, Драма, Приключения
Режиссер: Марк Каро, Жан-Пьер Жёне
Актеры: Рон Перлман, Жюдит Витте, Доминик Пинон, Даниэль Эмильфорк, Жан-Клод Дрейфус, Женевьев Бруне, Одиль Мале, Мирей Моссе, Серж Мерлен, Рюфюс
Описание:
Недалеко от гавани пропитанного сыростью и окутанного туманом мрачного Города потерянных детей, в замке на берегу моря живет страшный ученый по имени Кранк, преждевременно постаревший из-за полной неспособности спать. По приказу Кранка его подручные-циклопы похищают детей и затаскивают в мрачную лабораторию, где злодей-ученый превращает их сны в свои собственные.
Но из-за того, что дети ужасно его боятся, он видит только их кошмары. В поисках пропавшего младшего брата в Город приходит цирковой силач Один. Ему помогает храбрая девятилетняя девочка Миетт и ее бригада маленьких бойцов сопротивления ...

Релиз от: R.G. HD-Films
Продолжительность: 01:52:34
Качество видео: BDRip-AVC / 60fps
Перевод: Многоголосый закадровый (Екатеринбург Арт)
Язык субтитров: Русский
Вид субтитров: Вшитые, отключаемые
Видео: AVC/H.264, 1024x552 (1.855), 3445 kbps, 59,940 fps, 0,102 bpp
Аудио №1: русский / AC3 / 5.1 / 48 kHz / 448 kbps / 16 bit |MVO Екатеринбург Арт|
Аудио №2: французский / AC3 / 5.1 / 48 kHz / 448 kbps / 16 bit

Mediainfo:

General
Unique ID : 217974819276794502980941545890171190768 (0xA3FC6C54005261C185D0687535F1FDF0)
Название : H:\The.City.Of.Lost.Children.1995.BDRip-AVC.60fps.mkv
Формат : Matroska
Формат version : Version 4 / Version 2
Размер файла : 3.48 GiB
Длительность : 1h 52mn
Общий Битрейт : 4 430 Kbps
Movie name : The City of Lost Children (1995) BDRip-AVC 60fps - R.G. HD-Films
Encoded date : UTC 2015-08-27 05:34:37
Создано приложением : mkvmerge v8.3.0 ('Over the Horizon') 64bit
Writing library : libebml v1.3.1 + libmatroska v1.4.2
Attachment : Yes
Video
ID : 1
Формат : AVC
Формат/Info : Advanced Video Кодек
Формат profile : High@L4.1
Формат настройки, CABAC : Yes
Формат настройки, ReFrames : 12 frames
Кодек ID : V_MPEG4/ISO/AVC
Длительность : 1h 52mn
Битрейт : 3 446 Kbps
Width : 1 024 пикселей
Высота : 552 пикселей
Соотношение кадра : 1.855
Частота кадров : 59.940 fps
Цветопередача : YUV
Chroma subsampling : 4:2:0
Разрядность : 8 bits
Тип сканирования : Progressive
Bits/(Pixel*Frame) : 0.102
Размер потока : 2.71 GiB (78%)
Writing library : x264 core 146 r2538 121396c
Encoding настройки : cabac=1 / ref=12 / deblock=1:-3:-3 / analyse=0x3:0x113 / me=umh / subme=11 / psy=1 / psy_rd=1.00:0.10 / mixed_ref=1 / me_range=32 / chroma_me=1 / trellis=2 / 8x8dct=1 / cqm=0 / deadzone=21,11 / fast_pskip=0 / chroma_qp_offset=-3 / threads=6 / lookahead_threads=2 / sliced_threads=0 / nr=0 / decimate=1 / interlaced=0 / bluray_compat=0 / constrained_intra=0 / bframes=7 / b_pyramid=2 / b_adapt=2 / b_bias=0 / direct=1 / weightb=1 / open_gop=0 / weightp=2 / keyint=240 / keyint_min=23 / scenecut=40 / intra_refresh=0 / rc=crf / mbtree=0 / crf=16.5 / qcomp=0.60 / qpmin=0 / qpmax=69 / qpstep=4 / ip_ratio=1.40 / pb_ratio=1.30 / aq=1:1.00
Язык : English
Default : Yes
Forced : No
Audio #1
ID : 2
Формат : AC-3
Формат/Info : Audio Coding 3
Расширение режима : CM (complete main)
Кодек ID : A_AC3
Длительность : 1h 52mn
Битрейт mode : Constant
Битрейт : 448 Kbps
Каналы(s) : 6 каналов
Каналы positions : Front: L C R, Side: L R, LFE
Частота : 48.0 KHz
Разрядность : 16 bits
Режим сжатия : Lossy
Размер потока : 361 MiB (10%)
Title : MVO Екатеринбург Арт
Язык : Russian
Default : Yes
Forced : No
Audio #2
ID : 3
Формат : AC-3
Формат/Info : Audio Coding 3
Расширение режима : CM (complete main)
Кодек ID : A_AC3
Длительность : 1h 52mn
Битрейт mode : Constant
Битрейт : 448 Kbps
Каналы(s) : 6 каналов
Каналы positions : Front: L C R, Side: L R, LFE
Частота : 48.0 KHz
Разрядность : 16 bits
Режим сжатия : Lossy
Размер потока : 361 MiB (10%)
Title : Original
Язык : French
Default : No
Forced : No
Text
ID : 4
Формат : UTF-8
Кодек ID : S_TEXT/UTF8
Кодек ID/Info : UTF-8 Plain Text
Title : Rus
Язык : Russian
Default : No
Forced : No
Menu
00:00:00.000 : :Chapter 01
00:04:38.652 : :Chapter 02
00:06:55.330 : :Chapter 03
00:13:10.497 : :Chapter 04
00:15:19.334 : :Chapter 05
00:17:39.141 : :Chapter 06
00:19:19.574 : :Chapter 07
00:23:44.881 : :Chapter 08
00:26:26.375 : :Chapter 09
00:33:08.485 : :Chapter 10
00:38:31.766 : :Chapter 11
00:41:03.877 : :Chapter 12
00:43:25.436 : :Chapter 13
00:50:16.178 : :Chapter 14
00:55:27.281 : :Chapter 15
00:59:26.521 : :Chapter 16
01:02:28.911 : :Chapter 17
01:04:50.677 : :Chapter 18
01:09:35.711 : :Chapter 19
01:10:19.546 : :Chapter 20
01:12:39.688 : :Chapter 21
01:14:52.029 : :Chapter 22
01:16:45.599 : :Chapter 23
01:19:13.538 : :Chapter 24
01:24:07.332 : :Chapter 25
01:35:03.404 : :Chapter 26
01:36:28.822 : :Chapter 27
01:43:26.324 : :Chapter 28
Скриншоты:

[Цитировать]



Показать сообщения:    

Текущее время: 10-Дек 11:55

Часовой пояс: UTC + 3


Вы не можете начинать темы
Вы не можете отвечать на сообщения
Вы не можете редактировать свои сообщения
Вы не можете удалять свои сообщения
Вы не можете голосовать в опросах
Вы не можете прикреплять файлы к сообщениям
Вы не можете скачивать файлы

!ВНИМАНИЕ!
Сайт не предоставляет электронные версии произведений, а занимается лишь коллекционированием и каталогизацией ссылок, присылаемых и публикуемых на форуме нашими читателями. Если вы являетесь правообладателем какого-либо представленного материала и не желаете, чтобы ссылка на него находилась в нашем каталоге, свяжитесь с нами, и мы незамедлительно удалим ее. Файлы для обмена на трекере предоставлены пользователями сайта, и администрация не несет ответственности за их содержание. Просьба не заливать файлы, защищенные авторскими правами, а также файлы нелегального содержания!