[ Сегодня идет свободное скачивание без начисления Download ]


Статистика раздачи
Нет
 
   
 
Top  
 
 
Профессионал / Killer Elite (2011) BDRip 720p Информация о фильме
Название: Профессионал
Оригинальное название: Killer Elite
Год выхода: 2011
Жанр: боевик, триллер, криминал
Режиссер: Гэри МакКендри
В ролях: Джейсон Стэйтем, Клайв Оуэн, Роберт Де Ниро, Доминик Пёрселл, Аден Янг, Ивонн Страховски, Бен Мендельсон, Адевале Акинойе-Агбаже, Дэвид Уайтели, Мэтью Нэйбл
О фильме:
Дэнни Брайс — бывший наемный убийца международного уровня. Но спустя год спокойной жизни он получает сообщение от посредника, из которого узнает, что его бывший напарник взят в заложники арабским шейхом. Теперь Дэнни обязан убить отставных бойцов элитного спецподразделения SAS, чтобы вызволить приятеля из темницы шейха.
Страна: Великобритания, Австралия
Студия: International Traders, Omnilab Media, Palomar Pictures (II)
Продолжительность: 01:56:42
Перевод: Профессиональный (дублированный) Blu-ray EUR + Авторский (Андрей Гаврилов) + Авторский (Михаил Яроцкий)
Файл
Формат: Matroska
Видео: 1280x532 at 23.976 fps, x264@L4.1, ~6800 kbps avg
Аудио#1: Russian: 48 kHz, AC3, 3/2 (L,C,R,l,r) + LFE ch, ~640.00 kbps avg |Дубляж, Blu-ray EUR|
Аудио#2: Russian: 48 kHz, DTS, 3/2 (L,C,R,l,r) + LFE ch, ~1509 kbps avg |Авторский, А.Гаврилов|
Аудио#3: Russian: 48 kHz, DTS, 3/2 (L,C,R,l,r) + LFE ch, ~1509 kbps avg |Авторский, М.Яроцкий|
Аудио#4: English: 48 kHz, DTS, 3/2 (L,C,R,l,r) + LFE ch, ~1509 kbps avg
Субтитры: Russian, English
***Сохранены оригинальные главы как на Blu-ray.
***Аудио#2 получено наложением чистого голоса на центр декодированного оригинала. Дорожка пересобрана по новой, и со старой сборкой с Пиратки ничего общего не имеет. Баланс громкости голос/оригинал выставлен поэпизодно, а во многих местах и пофразово. За голос мэтра спасибо: SavineX, Джосс, _int, Wolf_, therox, dunhill200, lexal, Chistobaev, feldeger, Perusta, feldeger-2, Slimka, pestel, shitman82, milocerd0v, zetrob, Gemini, Kampfer161, audiolubitel, Pain_70, fandvd, Letyoha3, chernila. Работа со звуком - Прагматик.
***Перевод М. Яроцкого доступен благодаря - dikii. Работа со звуком - mihaildns. В переводе присутствует ненормативная лексика!

MI

Общее
Уникальный идентификатор : 222232832260964812905191080412801105633 (0xA7307C93A2AB1FC89B118246488F7EE1)
Полное имя : Killer.Elite.2011.720p.BDRip.3xRus.Eng.Sub.mkv
Формат : Matroska
Версия формата : Version 2
Размер файла : 9,75 Гбайт
Продолжительность : 1 ч. 56 м.
Общий поток : 12,0 Мбит/сек
Дата кодирования : UTC 2015-12-13 19:32:10
Программа кодирования : mkvmerge v8.3.0 ('Over the Horizon') 64bit
Библиотека кодирования : libebml v1.3.1 + libmatroska v1.4.2
Attachements : cover.jpg
Видео
Идентификатор : 1
Формат : AVC
Формат/Информация : Advanced Video Codec
Профиль формата : High@L4.1
Параметр CABAC формата : Да
Параметр ReFrames формата : 12 кадров
Идентификатор кодека : V_MPEG4/ISO/AVC
Продолжительность : 1 ч. 56 м.
Битрейт : 6800 Кбит/сек
Ширина : 1280 пикселей
Высота : 532 пикселя
Соотношение сторон : 2,40:1
Режим частоты кадров : Постоянный
Частота кадров : 23,976 кадра/сек
Цветовое пространство : YUV
Субдискретизация насыщенности : 4:2:0
Битовая глубина : 8 бит
Тип развёртки : Прогрессивная
Бит/(Пиксели*Кадры) : 0.416
Размер потока : 5,35 Гбайт (55%)
Заголовок : Killer.Elite.2011 Encode by NiP
Библиотека кодирования : x264 core 120 r2120 0c7dab9
Настройки программы : cabac=1 / ref=12 / deblock=1:-3:-3 / analyse=0x3:0x113 / me=esa / subme=11 / psy=1 / psy_rd=1.00:0.25 / mixed_ref=1 / me_range=32 / chroma_me=1 / trellis=2 / 8x8dct=1 / cqm=0 / deadzone=21,11 / fast_pskip=0 / chroma_qp_offset=-4 / threads=12 / sliced_threads=0 / nr=0 / decimate=0 / interlaced=0 / bluray_compat=0 / constrained_intra=0 / bframes=12 / b_pyramid=2 / b_adapt=2 / b_bias=0 / direct=3 / weightb=1 / open_gop=0 / weightp=2 / keyint=250 / keyint_min=23 / scenecut=40 / intra_refresh=0 / rc_lookahead=60 / rc=2pass / mbtree=0 / bitrate=6800 / ratetol=1.0 / qcomp=0.80 / qpmin=0 / qpmax=69 / qpstep=4 / cplxblur=20.0 / qblur=0.5 / vbv_maxrate=50000 / vbv_bufsize=62500 / nal_hrd=none / ip_ratio=1.30 / pb_ratio=1.20 / aq=2:0.70
Язык : English
Default : Да
Forced : Нет
Цветовой диапазон : Limited
Коэффициенты матрицы : BT.709
Аудио #1
Идентификатор : 2
Формат : AC-3
Формат/Информация : Audio Coding 3
Расширение режима : CM (complete main)
Параметр Endianness формата : Big
Идентификатор кодека : A_AC3
Продолжительность : 1 ч. 56 м.
Вид битрейта : Постоянный
Битрейт : 640 Кбит/сек
Каналы : 6 каналов
Расположение каналов : Front: L C R, Side: L R, LFE
Частота : 48,0 КГц
Метод сжатия : С потерями
Размер потока : 534 Мбайт (5%)
Заголовок : Дубляж, Blu-Ray CEE
Язык : Russian
Default : Да
Forced : Нет
Аудио #2
Идентификатор : 3
Формат : DTS
Формат/Информация : Digital Theater Systems
Режим : 16
Параметр Endianness формата : Big
Идентификатор кодека : A_DTS
Продолжительность : 1 ч. 56 м.
Вид битрейта : Постоянный
Битрейт : 1509 Кбит/сек
Каналы : 6 каналов
Расположение каналов : Front: L C R, Side: L R, LFE
Частота : 48,0 КГц
Битовая глубина : 24 бит
Метод сжатия : С потерями
Размер потока : 1,23 Гбайт (13%)
Заголовок : Одноголосый закадровый, А.Гаврилов
Язык : Russian
Default : Нет
Forced : Нет
Аудио #3
Идентификатор : 4
Формат : DTS
Формат/Информация : Digital Theater Systems
Режим : 16
Параметр Endianness формата : Big
Идентификатор кодека : A_DTS
Продолжительность : 1 ч. 56 м.
Вид битрейта : Постоянный
Битрейт : 1509 Кбит/сек
Каналы : 6 каналов
Расположение каналов : Front: L C R, Side: L R, LFE
Частота : 48,0 КГц
Битовая глубина : 24 бит
Метод сжатия : С потерями
Размер потока : 1,23 Гбайт (13%)
Заголовок : Одноголосый закадровый, М.Яроцкий
Язык : Russian
Default : Нет
Forced : Нет
Аудио #4
Идентификатор : 5
Формат : DTS
Формат/Информация : Digital Theater Systems
Режим : 16
Параметр Endianness формата : Big
Идентификатор кодека : A_DTS
Продолжительность : 1 ч. 56 м.
Вид битрейта : Постоянный
Битрейт : 1509 Кбит/сек
Каналы : 6 каналов
Расположение каналов : Front: L C R, Side: L R, LFE
Частота : 48,0 КГц
Битовая глубина : 24 бит
Метод сжатия : С потерями
Размер потока : 1,23 Гбайт (13%)
Заголовок : Original
Язык : English
Default : Нет
Forced : Нет
Текст #1
Идентификатор : 6
Формат : UTF-8
Идентификатор кодека : S_TEXT/UTF8
Идентификатор кодека/Информация : UTF-8 Plain Text
Язык : Russian
Default : Нет
Forced : Нет
Текст #2
Идентификатор : 7
Формат : UTF-8
Идентификатор кодека : S_TEXT/UTF8
Идентификатор кодека/Информация : UTF-8 Plain Text
Язык : English
Default : Нет
Forced : Нет
Меню
00:00:00.000 : en:Chapter 1
00:06:11.580 : en:Chapter 2
00:12:40.385 : en:Chapter 3
00:18:18.222 : en:Chapter 4
00:24:33.389 : en:Chapter 5
00:30:06.972 : en:Chapter 6
00:36:41.324 : en:Chapter 7
00:41:01.417 : en:Chapter 8
00:46:36.293 : en:Chapter 9
00:51:37.052 : en:Chapter 10
00:57:32.532 : en:Chapter 11
01:02:14.272 : en:Chapter 12
01:07:04.896 : en:Chapter 13
01:12:39.981 : en:Chapter 14
01:20:23.652 : en:Chapter 15
01:26:27.474 : en:Chapter 16
01:32:30.628 : en:Chapter 17
01:41:02.807 : en:Chapter 18
01:46:07.278 : en:Chapter 19
01:50:26.203 : en:Chapter 20

Скриншоты


[Цитировать]



Показать сообщения:    

Текущее время: 02-Дек 21:01

Часовой пояс: UTC + 3


Вы не можете начинать темы
Вы не можете отвечать на сообщения
Вы не можете редактировать свои сообщения
Вы не можете удалять свои сообщения
Вы не можете голосовать в опросах
Вы не можете прикреплять файлы к сообщениям
Вы не можете скачивать файлы

!ВНИМАНИЕ!
Сайт не предоставляет электронные версии произведений, а занимается лишь коллекционированием и каталогизацией ссылок, присылаемых и публикуемых на форуме нашими читателями. Если вы являетесь правообладателем какого-либо представленного материала и не желаете, чтобы ссылка на него находилась в нашем каталоге, свяжитесь с нами, и мы незамедлительно удалим ее. Файлы для обмена на трекере предоставлены пользователями сайта, и администрация не несет ответственности за их содержание. Просьба не заливать файлы, защищенные авторскими правами, а также файлы нелегального содержания!