[ Сегодня идет свободное скачивание без начисления Download ]


Статистика раздачи
Качаю: [ 1 ]
 
   
 
Top  
 
 
Другой майор Соколов Год выпуска: 2015
Производитель : Россия, Кинокомпания "Пирамида" по заказу НТВ
Жанр: Криминал, боевик
Продолжительность: 45 мин.
Cубтитры: нет
Режиссер: Карен Захаров
В ролях: Вадим Андреев, Константин Соловьёв, Анастасия Панина, Александр Наумов, Филипп Бледный, Денис Варенов, Олег Клёнов (II), Андрей Ерофеев, Марина Волкова, Антон Степанов, Вероника Лысакова, Александра Артемьева, Алёна Чехова, Александр Сергеев (IV), Юрий Маслак, Наталья Тищенко, Виктор Пилипко, Иван Непомнящий, Полина Кутихина, Евгений Венедиктов, Анатолий Завьялов, Виктория Адельфина, Евгений Кравченко, Олеся Буртолик-Белоцкая, Алла Малкова, Дмитрий Сапронов, Александр Хованский (II), Денис Сердюков, Анастасия Пономарёва, Виктор Фалалеев, Владимир Балашов (II), Илья Бледный, Ольга Волхонская, Дмитрий Грачев (II), Игорь Трошин, Евгений Галенко, Александр Серов-Останкинский, Елена Войновская, Дмитрий Умеров, Антон Сёмкин, Дмитрий Родонов, Татьяна Мазур, Павел Данилов, Александр Коньшин
Описание: В центре нового захватывающего боевика НТВ «Другой майор Соколов» – работа специальной службы – Управления собственной безопасности, которое расследует преступления, совершаемые работниками правоохранительных органов. Лучшие сотрудники управления – Влад Соколов (Константин Соловьёв), Андрей Гордеев (Филипп Бледный), Марина Ветрова (Анастасия Панина) и Олег Ершов (Александр Наумов) служат в группе под руководством полковника Ладыгина (Вадим Андреев). Казалось бы, их служба не отличается от службы обычных полицейских: оперативная разработка, прослушка, слежка, опрос свидетелей, арест преступников… С одной лишь только разницей – они расследуют дела своих коллег. Между сотрудниками Управления и простыми полицейскими – пропасть. Вокруг группы – атмосфера недоверия и подозрительности. Им часто приходится работать в условиях тотального отчуждения. Но все действуют по закону, а майор Соколов – по справедливости...
Сэмпл
Качество: HDTVRip
Формат: AVI
Видео кодек: XviD
Аудио кодек: AC3
Видео: 720x400 (1.80:1), 25 fps, XviD build 73 ~1548 kbps avg, 0.22 bit/pixel
Аудио: 48 kHz, AC3 Dolby Digital, 2/0 (L,R) ch, ~192.00 kbps avg

MI

General
Complete name : Y:\раздачи\Другой майор Соколов.2015.HDTVRip.RG.Russkie.serialy.&.Files-x\01.Другой майор Соколов.2015.HDTVRip.RG.Russkie.serialy.&.Files-x.avi
Format : AVI
Format/Info : Audio Video Interleave
File size : 550 MiB
Duration : 45mn 44s
Overall bit rate : 1 680 Kbps
Writing application : VirtualDubMod 1.5.10.3 | www.virtualdub-fr.org || (build 2550/release)
Writing library : VirtualDubMod build 2550/release
Video
ID : 0
Format : MPEG-4 Visual
Format profile : Advanced Simple@L5
Format settings, BVOP : 1
Format settings, QPel : No
Format settings, GMC : No warppoints
Format settings, Matrix : Custom
Codec ID : XVID
Codec ID/Hint : XviD
Duration : 45mn 44s
Bit rate : 1 478 Kbps
Width : 720 pixels
Height : 400 pixels
Display aspect ratio : 16:9
Frame rate : 25.000 fps
Color space : YUV
Chroma subsampling : 4:2:0
Bit depth : 8 bits
Scan type : Progressive
Compression mode : Lossy
Bits/(Pixel*Frame) : 0.205
Stream size : 484 MiB (88%)
Writing library : XviD 73
Audio
ID : 1
Format : AC-3
Format/Info : Audio Coding 3
Mode extension : CM (complete main)
Format settings, Endianness : Big
Codec ID : 2000
Duration : 45mn 44s
Bit rate mode : Constant
Bit rate : 192 Kbps
Channel(s) : 2 channels
Channel positions : Front: L R
Sampling rate : 48.0 KHz
Compression mode : Lossy
Stream size : 62.8 MiB (11%)
Alignment : Split accross interleaves
Interleave, duration : 40 ms (1.00 video frame)
Interleave, preload duration : 500 ms

Внимание! Раздача ведётся путём добавления новых серий!

Внимание! Раздача ведётся путём добавления новых серий; при каждом добавлении создfётся новый торрент. Чтобы начать докачку новой серии, пользователям необходимо сделать следующее: (1) остановить скачивание, (2) удалить старый торрент у себя из клиента (старые серии удалять не надо), (3) скачать новый торрент и запустить его у себя в клиенте вместо старого, при этом указать клиенту путь в старую папку куда и должно происходить скачивание новых серий.
Ваш клиент при этом должен произвести хеширование (проверку) старой папки (если не производит сам - помогите ему сделать это), и будет докачивать только те серии которых у вас ещё нет. Старые серии при этом не удаляются, а продолжают раздаваться!
Eсли вы уже удалили старые серии, то предотвратить повторную закачку старых серий можно, отжав галочку в соответсвующих местах при запуске нового торрента.

Скриншоты

[Цитировать]



Показать сообщения:    

Текущее время: 03-Дек 01:15

Часовой пояс: UTC + 3


Вы не можете начинать темы
Вы не можете отвечать на сообщения
Вы не можете редактировать свои сообщения
Вы не можете удалять свои сообщения
Вы не можете голосовать в опросах
Вы не можете прикреплять файлы к сообщениям
Вы не можете скачивать файлы

!ВНИМАНИЕ!
Сайт не предоставляет электронные версии произведений, а занимается лишь коллекционированием и каталогизацией ссылок, присылаемых и публикуемых на форуме нашими читателями. Если вы являетесь правообладателем какого-либо представленного материала и не желаете, чтобы ссылка на него находилась в нашем каталоге, свяжитесь с нами, и мы незамедлительно удалим ее. Файлы для обмена на трекере предоставлены пользователями сайта, и администрация не несет ответственности за их содержание. Просьба не заливать файлы, защищенные авторскими правами, а также файлы нелегального содержания!