[ Сегодня идет свободное скачивание без начисления Download ]


Статистика раздачи
Нет
 
   
 
Top  
 
 
Информация о фильме
Название: Ни минуты покоя
Оригинальное название: Une heure de tranquillité
Год выхода: 2014
Премьера (РФ): 5 ноября 2015
Жанр: Комедия
Режиссер: Патрис Леконт
В ролях: Кристиан Клавье, Кароль Буке, Валери Боннетон, Росси де Пальма, Стефан Де Гродт, Себастьен Кастро, Кристиан Шарметан, Арно Анриет, Рикардо Арсиага, Элиша Камачо
О фильме: У дантиста Мишеля Лепру — выходной. Поэтому он решил неспешно прогуляться по блошиному рынку, радуясь жизни. Но, раскопав в развалах древний (1958 года выпуска) виниловый диск с концертом кларнетиста Нила Юара, Мишель помчался домой, чтобы срочно послушать любимого музыканта. Но! Весь мир как будто сговорился лишить врача-меломана счастья. Жена потребовала серьезного разговора «о нас». В любовнице заговорила совесть, и она (любовница, а не совесть) решила во всем признаться жене Мишеля. Работяги-иммигранты устроили в квартире потоп. Взрослый сын в борьбе с буржуазными устоями привел на постой многочисленную филиппинскую семью. А Мишелю в этом бедламе нужно найти час, всего лишь час, чтобы послушать любимого музыканта…

Страна: Франция
Студия: Canal+ [fr], CZ Productions, Fidélité Films, Orange Cinéma Séries, TF1 Films Production, Wild Bunch
Продолжительность: 01:19:10
Перевод: Профессиональный (полное дублированное) [iTunes]
Файл
Кодек: XviD
Качество: HDRip
Видео: 656x272 (2.41:1), 23.976 fps, XviD build 73 ~1178 kbps avg, 0.28 bit/pixel
Звук: 48 kHz, MPEG Layer 3, 2 ch, ~128.00 kbps avg
Субтитры: Отсутствует
Семпл

MI

General
Complete name : E:Изготовление риповHi.MyHuti.P0K0ja.2015.D.HDRip.by shkiper.avi
Format : AVI
Format/Info : Audio Video Interleave
File size : 745 MiB
Duration : 1h 19mn
Overall bit rate : 1 316 Kbps
Writing application : VirtualDubMod 1.5.10.3 | www.virtualdub-fr.org || (build 2550/release)
Writing library : VirtualDubMod build 2550/release
Video
ID : 0
Format : MPEG-4 Visual
Format profile : Advanced Simple@L5
Format settings, BVOP : 1
Format settings, QPel : No
Format settings, GMC : No warppoints
Format settings, Matrix : Custom
Codec ID : XVID
Codec ID/Hint : XviD
Duration : 1h 19mn
Bit rate : 1 179 Kbps
Width : 656 pixels
Height : 272 pixels
Display aspect ratio : 2.40:1
Frame rate : 23.976 fps
Color space : YUV
Chroma subsampling : 4:2:0
Bit depth : 8 bits
Scan type : Progressive
Compression mode : Lossy
Bits/(Pixel*Frame) : 0.276
Stream size : 668 MiB (90%)
Writing library : XviD 73
Audio
ID : 1
Format : MPEG Audio
Format version : Version 1
Format profile : Layer 3
Mode : Joint stereo
Mode extension : MS Stereo
Codec ID : 55
Codec ID/Hint : MP3
Duration : 1h 19mn
Bit rate mode : Constant
Bit rate : 128 Kbps
Channel(s) : 2 channels
Sampling rate : 48.0 KHz
Compression mode : Lossy
Stream size : 72.5 MiB (10%)
Alignment : Aligned on interleaves
Interleave, duration : 42 ms (1.00 video frame)
Interleave, preload duratio : 504 ms
Writing library : LAME3.99r
Encoding settings : -m j -V 4 -q 2 -lowpass 17 -b 128

Скриншоты

Релиз от:

[Цитировать]



Показать сообщения:    

Текущее время: 11-Дек 05:21

Часовой пояс: UTC + 3


Вы не можете начинать темы
Вы не можете отвечать на сообщения
Вы не можете редактировать свои сообщения
Вы не можете удалять свои сообщения
Вы не можете голосовать в опросах
Вы не можете прикреплять файлы к сообщениям
Вы не можете скачивать файлы

!ВНИМАНИЕ!
Сайт не предоставляет электронные версии произведений, а занимается лишь коллекционированием и каталогизацией ссылок, присылаемых и публикуемых на форуме нашими читателями. Если вы являетесь правообладателем какого-либо представленного материала и не желаете, чтобы ссылка на него находилась в нашем каталоге, свяжитесь с нами, и мы незамедлительно удалим ее. Файлы для обмена на трекере предоставлены пользователями сайта, и администрация не несет ответственности за их содержание. Просьба не заливать файлы, защищенные авторскими правами, а также файлы нелегального содержания!