[ Today is free to download without increasing Download ]

DL-List and Torrent activity
Информация о фильме
Название: Духов день
Год выхода: 1990
Жанр: Фантастика, драма
Режиссер: Сергей Сельянов
В ролях: Юрий Шевчук, Борис Голяткин, Геннадий Гарбук, Виктор Семёновский, Ольга Григорьева, Владимир Зубенко, Олег Корчиков, Станислав Ландграф, Владимир Головин, Александр Анисимов
О фильме:Иван Христофоров открывает в себе странное свойство непроизвольно взрывать окружающие предметы. Пытаясь понять причину и смысл этой необычной способности, он обращается к фамильной истории. Внимание секретной государственной службы не сулит Христофорову ничего хорошего.

Страна: СССР
Студия: Ленфильм, «Голос», Госкино
Продолжительность: 01:50:30
Перевод: Не требуется
Кодек: XviD
Качество: DVDRip
Видео: 512x384 (1.33:1), 25 fps, XviD build 73 ~806 kbps avg, 0.164 bit/pixel
Звук: 48 kHz, MPEG Layer 3, 2 ch, ~128.00 kbps avg
Субтитры: Отсутствует


Complete name : E:Изготовление риповDuhov Den (1990) DVDrip by shkiper.avi
Format : AVI
Format/Info : Audio Video Interleave
File size : 746 MiB
Duration : 1h 50mn
Overall bit rate : 944 Kbps
Writing application : VirtualDubMod | www.virtualdub-fr.org || (build 2550/release)
Writing library : VirtualDubMod build 2550/release
ID : 0
Format : MPEG-4 Visual
Format profile : Advanced Simple@L5
Format settings, BVOP : 1
Format settings, QPel : No
Format settings, GMC : No warppoints
Format settings, Matrix : Custom
Codec ID : XVID
Codec ID/Hint : XviD
Duration : 1h 50mn
Bit rate : 807 Kbps
Width : 512 pixels
Height : 384 pixels
Display aspect ratio : 4:3
Frame rate : 25.000 fps
Color space : YUV
Chroma subsampling : 4:2:0
Bit depth : 8 bits
Scan type : Progressive
Compression mode : Lossy
Bits/(Pixel*Frame) : 0.164
Stream size : 638 MiB (85%)
Writing library : XviD 73
ID : 1
Format : MPEG Audio
Format version : Version 1
Format profile : Layer 3
Mode : Joint stereo
Mode extension : MS Stereo
Codec ID : 55
Codec ID/Hint : MP3
Duration : 1h 50mn
Bit rate mode : Constant
Bit rate : 128 Kbps
Channel(s) : 2 channels
Sampling rate : 48.0 KHz
Compression mode : Lossy
Stream size : 101 MiB (14%)
Alignment : Aligned on interleaves
Interleave, duration : 40 ms (1.00 video frame)
Interleave, preload duratio : 504 ms
Writing library : LAME3.99r
Encoding settings : -m j -V 4 -q 2 -lowpass 17 -b 128


Релиз от:


Display posts:    

Current time is: 21-Oct 21:23

All times are UTC + 3

You cannot post new topics in this forum
You cannot reply to topics in this forum
You cannot edit your posts in this forum
You cannot delete your posts in this forum
You cannot vote in polls in this forum
You cannot attach files in this forum
You cannot download files in this forum

The site does not give electronic versions of products, and is engaged only in a collecting and cataloguing of the references sent and published at a forum by our readers. If you are the legal owner of any submitted material and do not wish that the reference to it was in our catalogue, contact us and we shall immediately remove her. Files for an exchange on tracker are given by users of a site, and the administration does not bear the responsibility for their maintenance. The request to not fill in the files protected by copyrights, and also files of the illegal maintenance!