[ Today is free to download without increasing Download ]

DL-List and Torrent activity
Дама в очках и с ружьем в автомобиле
La dame dans l'auto avec des lunettes et un fusil
Страна: Франция, Бельгия
Жанр: Триллер, экранизация
Год выпуска: 2015
Продолжительность: 01:34:49
Перевод: Профессиональный (дублированный) - iTunes
Cубтитры: нет
Оригинальная аудиодорожка: нет
Режиссер: Жоанн Сфар
В ролях: Фрейя Мавор, Бенжамин Биолэй, Элио Джермано, Стэйси Мартин, Тьерри Анкиссе, Сандрин Ларош, Фредерик Этерлинк, Ален Белло, Эдуар Жиар, Франсуа-Доминик Блен
Описание: Она самая прекрасная, самая чувственная, самая импульсивная, самая упрямая, самая незадачливая девушка. Она хотела воплотить мечту и увидеть море, а в результате попала в невероятную переделку. В чужом автомобиле и с трупом в багажнике, скрываясь от полиции и рискуя собственной жизнью, ей осталось только одно — убедить себя в том, что она еще не окончательно сошла с ума, и что она — это она, а не кто-то другой…
Релиз от:
Сэмпл: http://multi-up.com/1079700
Качество видео: HDRip
Формат видео: AVI
Видео: 688x288 (2.39:1), 24.000 fps, XviD build 73 ~944 kbps avg, 0.20 bit/pixel
Аудио: 48 kHz, MPEG Layer 3, 2 ch, ~128.00 kbps avg


Complete name : E:Изготовление риповDama.V.OCHkah.2015.D.740mb HDRip.by shkiper.avi
Format : AVI
Format/Info : Audio Video Interleave
File size : 734 MiB
Duration : 1h 34mn
Overall bit rate : 1 082 Kbps
Writing application : VirtualDubMod | www.virtualdub-fr.org || (build 2550/release)
Writing library : VirtualDubMod build 2550/release
ID : 0
Format : MPEG-4 Visual
Format profile : Advanced Simple@L5
Format settings, BVOP : 1
Format settings, QPel : No
Format settings, GMC : No warppoints
Format settings, Matrix : Custom
Codec ID : XVID
Codec ID/Hint : XviD
Duration : 1h 34mn
Bit rate : 945 Kbps
Width : 688 pixels
Height : 288 pixels
Display aspect ratio : 2.40:1
Frame rate : 24.000 fps
Color space : YUV
Chroma subsampling : 4:2:0
Bit depth : 8 bits
Scan type : Progressive
Compression mode : Lossy
Bits/(Pixel*Frame) : 0.199
Stream size : 641 MiB (87%)
Writing library : XviD 73
ID : 1
Format : MPEG Audio
Format version : Version 1
Format profile : Layer 3
Mode : Joint stereo
Mode extension : MS Stereo
Codec ID : 55
Codec ID/Hint : MP3
Duration : 1h 34mn
Bit rate mode : Constant
Bit rate : 128 Kbps
Channel(s) : 2 channels
Sampling rate : 48.0 KHz
Compression mode : Lossy
Stream size : 86.8 MiB (12%)
Alignment : Aligned on interleaves
Interleave, duration : 42 ms (1.00 video frame)
Interleave, preload duratio : 504 ms
Writing library : LAME3.99r
Encoding settings : -m j -V 4 -q 2 -lowpass 17 -b 128

Скриншот c названием фильма



Display posts:    

Current time is: 22-Oct 08:23

All times are UTC + 3

You cannot post new topics in this forum
You cannot reply to topics in this forum
You cannot edit your posts in this forum
You cannot delete your posts in this forum
You cannot vote in polls in this forum
You cannot attach files in this forum
You cannot download files in this forum

The site does not give electronic versions of products, and is engaged only in a collecting and cataloguing of the references sent and published at a forum by our readers. If you are the legal owner of any submitted material and do not wish that the reference to it was in our catalogue, contact us and we shall immediately remove her. Files for an exchange on tracker are given by users of a site, and the administration does not bear the responsibility for their maintenance. The request to not fill in the files protected by copyrights, and also files of the illegal maintenance!