[ Сегодня идет свободное скачивание без начисления Download ]


Статистика раздачи
Нет
 
   
 
Top  
 
 
Информация о фильме
Название: Дама в очках и с ружьем в автомобиле
Оригинальное название: La dame dans l'auto avec des lunettes et un fusil
Год выпуска: 2015
Страна: Франция, Бельгия
Жанр: триллер-Перевод: Дубляж - [Лицензия / iTunes]
Продолжительность: 01:34:49-Режиссер: Жоанн Сфар
В ролях: Фрейя Мавор (Dany Dorémus), Бенжамин Биолэй (Michel Caravaille), Элио Джермано (Stefano, dit Georges (Le jeune homme aux yeux noirs)), Стэйси Мартин (Anita), Тьерри Анкиссе (Le garagiste), Сандрин Ларош (La femme du garagiste), Фредерик Этерлинк (Un type de la station service), Ален Белло (L'autre type de la station service), Эдуар Жиар (Le routier bouquet de violettes), Франсуа-Доминик Блен (Le routier du relais), Ноэми Моралес (Sylvie), Лу Ламбрехт (La petite fille du garagiste)-Описание:
Она самая прекрасная, самая чувственная, самая импульсивная, самая упрямая, самая незадачливая девушка. Она хотела воплотить мечту и увидеть море, а в результате попала в невероятную переделку. В чужом автомобиле и с трупом в багажнике, скрываясь от полиции и рискуя собственной жизнью, ей осталось только одно - убедить себя в том, что она еще не окончательно сошла с ума, и что она - это она, а не кто-то другой...-Рейтинг:
-Качество: HDRip-AVC
Формат: MKV
Видео: AVC, 1024x432 (2.35:1), 1817 kbps, 24 fps, 0,171 bpp
Аудио: AC3 / 5.1 / 48 kHz / 384 kbps / 16 bit
Семпл--

ОтчетМедиаИнфо

General
Unique ID : 203739339392357895181576155551156527121 (0x9946C4FB3C27CE14B296BF9C0221E011)
Complete name : H:La dame dans l'auto avec des lunettes et un fusil. 2015. HDRip-AVC.by.White Smoke.R.G.Resident.mkv
Format : Matroska
Format version : Version 2
File size : 1.46 GiB
Duration : 1h 34mn
Overall bit rate : 2 202 Kbps
Encoded date : UTC 2015-12-16 10:49:23
Writing application : mkvmerge v7.8.0 ('River Man') 32bit built on Apr 3 2015 12:11:22
Writing library : libebml v1.3.1 + libmatroska v1.4.2
Video
ID : 1
Format : AVC
Format/Info : Advanced Video Codec
Format profile : High@L4.1
Format settings, CABAC : Yes
Format settings, ReFrames : 12 frames
Codec ID : V_MPEG4/ISO/AVC
Duration : 1h 34mn
Bit rate : 1 817 Kbps
Width : 1 024 pixels
Height : 432 pixels
Display aspect ratio : 2.35:1
Frame rate : 24.000 fps
Color space : YUV
Chroma subsampling : 4:2:0
Bit depth : 8 bits
Scan type : Progressive
Bits/(Pixel*Frame) : 0.171
Stream size : 1.17 GiB (81%)
Writing library : x264 core 146 r2538 121396c
Encoding settings : cabac=1 / ref=12 / deblock=1:-2:-2 / analyse=0x3:0x113 / me=umh / subme=9 / psy=1 / psy_rd=1.00:0.00 / mixed_ref=1 / me_range=32 / chroma_me=1 / trellis=2 / 8x8dct=1 / cqm=0 / deadzone=21,11 / fast_pskip=0 / chroma_qp_offset=-2 / threads=6 / lookahead_threads=1 / sliced_threads=0 / nr=0 / decimate=0 / interlaced=0 / bluray_compat=0 / constrained_intra=0 / bframes=10 / b_pyramid=2 / b_adapt=2 / b_bias=0 / direct=3 / weightb=1 / open_gop=0 / weightp=2 / keyint=250 / keyint_min=23 / scenecut=40 / intra_refresh=0 / rc_lookahead=60 / rc=2pass / mbtree=0 / bitrate=1817 / ratetol=1.0 / qcomp=0.60 / qpmin=0 / qpmax=69 / qpstep=4 / cplxblur=20.0 / qblur=0.5 / vbv_maxrate=14000 / vbv_bufsize=14000 / nal_hrd=none / filler=0 / ip_ratio=1.40 / pb_ratio=1.30 / aq=1:0.80
Default : Yes
Forced : No
Audio
ID : 2
Format : AC-3
Format/Info : Audio Coding 3
Mode extension : CM (complete main)
Codec ID : A_AC3
Duration : 1h 34mn
Bit rate mode : Constant
Bit rate : 384 Kbps
Channel(s) : 6 channels
Channel positions : Front: L C R, Side: L R, LFE
Sampling rate : 48.0 KHz
Bit depth : 16 bits
Compression mode : Lossy
Stream size : 260 MiB (17%)
Default : Yes
Forced : No

Скриншоты

[Цитировать]



Показать сообщения:    

Текущее время: 09-Дек 08:45

Часовой пояс: UTC + 3


Вы не можете начинать темы
Вы не можете отвечать на сообщения
Вы не можете редактировать свои сообщения
Вы не можете удалять свои сообщения
Вы не можете голосовать в опросах
Вы не можете прикреплять файлы к сообщениям
Вы не можете скачивать файлы

!ВНИМАНИЕ!
Сайт не предоставляет электронные версии произведений, а занимается лишь коллекционированием и каталогизацией ссылок, присылаемых и публикуемых на форуме нашими читателями. Если вы являетесь правообладателем какого-либо представленного материала и не желаете, чтобы ссылка на него находилась в нашем каталоге, свяжитесь с нами, и мы незамедлительно удалим ее. Файлы для обмена на трекере предоставлены пользователями сайта, и администрация не несет ответственности за их содержание. Просьба не заливать файлы, защищенные авторскими правами, а также файлы нелегального содержания!