[ Сегодня идет свободное скачивание без начисления Download ]


Top  
 
 
Информация о фильме
Название: Мама
Год выхода: 1976
Жанр: Музыкальный, сказка
Режиссер: Элизабет Бостан
В ролях: Людмила Гурченко, Михаил Боярский, Олег Попов, Савелий Крамаров, Валентин Манохин, Джордже Михаица, Флориан Питиш, Вера Ивлева, Евгений Герчаков, Наталья Крачковская, Марина Поляк, Виолетта Андрей, Паула Радулеску, Василе Менцель, Лилиана Петреску, Лулу Михаеску, Петя Дегтярев, Тимур Асалиев, Адриан Кристя, Матей Оприш, Т.Владимирцева, В.Кирсанов, Т.Бучучану-Ботез, П.Лисиченко, Т.Гросс, Г.Холопова, А.Иванова, В.Бабицкий, Т.Войтюк, З.Шакиров, Т.Немцова, Виолетта Андреева, Светлана Вагина, Наташа Гурушина, Яна Иванова, Артем Кретов, Эльза Кириллова, Саша Левченко, Оля Лопаева, Галя Миронова, Оксана Мерзликина, Катя Олонова, Лена Петрова, Инна Пронкина, Марина Сизова, Дима Скрынников, Дима Токар, Олег Царьков, Оля Шведова, Светлана Яшенкова, Саша Щеболева
О фильме: Незатейливый сюжет старой сказки о Волке, который обманом выкрал у Козы ее козлят, предстаёт в новой, остроумной и занимательной музыкальной интерпретации, созданной международным творческим коллективом.

Страна: СССР, Франция, Румыния
Студия: Мосфильм-Второе творческое объединение, Социалистическая Республика Румыния- Букурешть, Франция-Ралюкс-Фильм
Продолжительность: 01:23:10
Перевод: Не требуется
Файл
Кодек: XviD
Качество: HDTVRip
Видео: 624x352 (1.77:1), 25 fps, XviD build 73 ~1112 kbps avg, 0.20 bit/pixel
Звук: 48 kHz, MPEG Layer 3, 2 ch, ~128.00 kbps avg
Субтитры: Отсутствует
Семпл

MI

General
Complete name : E:Изготовление рипов1976.Mama.HDTVRip by shkiper.avi
Format : AVI
Format/Info : Audio Video Interleave
File size : 744 MiB
Duration : 1h 23mn
Overall bit rate : 1 250 Kbps
Writing application : VirtualDubMod 1.5.10.3 | www.virtualdub-fr.org || (build 2550/release)
Writing library : VirtualDubMod build 2550/release
Video
ID : 0
Format : MPEG-4 Visual
Format profile : Advanced [email protected]
Format settings, BVOP : 1
Format settings, QPel : No
Format settings, GMC : No warppoints
Format settings, Matrix : Custom
Codec ID : XVID
Codec ID/Hint : XviD
Duration : 1h 23mn
Bit rate : 1 113 Kbps
Width : 624 pixels
Height : 352 pixels
Display aspect ratio : 16:9
Frame rate : 25.000 fps
Color space : YUV
Chroma subsampling : 4:2:0
Bit depth : 8 bits
Scan type : Progressive
Compression mode : Lossy
Bits/(Pixel*Frame) : 0.203
Stream size : 662 MiB (89%)
Writing library : XviD 73
Audio
ID : 1
Format : MPEG Audio
Format version : Version 1
Format profile : Layer 3
Mode : Joint stereo
Mode extension : MS Stereo
Codec ID : 55
Codec ID/Hint : MP3
Duration : 1h 23mn
Bit rate mode : Constant
Bit rate : 128 Kbps
Channel(s) : 2 channels
Sampling rate : 48.0 KHz
Compression mode : Lossy
Stream size : 76.1 MiB (10%)
Alignment : Aligned on interleaves
Interleave, duration : 40 ms (1.00 video frame)
Interleave, preload duratio : 504 ms
Writing library : LAME3.99r
Encoding settings : -m j -V 4 -q 2 -lowpass 17 -b 128

Скриншоты

Релиз от:

[Цитировать]



Показать сообщения:    

Текущее время: 06-Дек 11:18

Часовой пояс: UTC + 3


Вы не можете начинать темы
Вы не можете отвечать на сообщения
Вы не можете редактировать свои сообщения
Вы не можете удалять свои сообщения
Вы не можете голосовать в опросах
Вы не можете прикреплять файлы к сообщениям
Вы не можете скачивать файлы

!ВНИМАНИЕ!
Сайт не предоставляет электронные версии произведений, а занимается лишь коллекционированием и каталогизацией ссылок, присылаемых и публикуемых на форуме нашими читателями. Если вы являетесь правообладателем какого-либо представленного материала и не желаете, чтобы ссылка на него находилась в нашем каталоге, свяжитесь с нами, и мы незамедлительно удалим ее. Файлы для обмена на трекере предоставлены пользователями сайта, и администрация не несет ответственности за их содержание. Просьба не заливать файлы, защищенные авторскими правами, а также файлы нелегального содержания!