[ Сегодня идет свободное скачивание без начисления Download ]


Статистика раздачи
Качаю: [ 1 ]
 
   
 
Top  
 
 
Рокки Бальбоа: Антология / Rocky Balboa: Antology

Рокки

-Название: Рокки
Оригинальное название: Rocky
Год выпуска: 1976
Страна: США
Жанр: драма, спорт
Продолжительность: 01:59:35
Перевод: Профессиональный (многоголосый)
Субтитры: русские (Полные), английские (Полные)
Режиссер: Джон Г. Эвилдсен
В ролях: Сильвестр Сталлоне (Rocky), Талия Шайр (Adrian), Берт Янг (Paulie), Карл Уэзерс (Apollo), Бёрджесс Мередит (Mickey), Тэйер Дэвид (Jergens), Джо Спинелл (Gazzo), Джимми Гамбина (Mike), Билл Болдуин ст. (Fight Announcer), Аль Сильвани (Cut Man), Джордж Меммоли (Ice Rink Attendant), Джоди Летиция (Marie)
Описание:
Кто такой Рокки Бальбоа? - это человек легенда, застенчивый, но чрезвычайно упрямый и талантливый боксер, который не щадил себя и поднялся с самого дна на вершину славы.
Своим обаянием он завоевывает сердца миллионов, а кровавыми поединками шокирует даже профессионалов. Он изматывает себя изнурительными тренировками и мечтает о поясе чемпиона мира. Как бультерьер он набрасывается на своих противников, какими бы опасными они не были.
Ему наплевать, что его лицо превращается в кровавое месиво, он всегда идет до самого конца, и кажется, что он скорее умрет, чем покажет свою слабость.
Рейтинг:

MPAA: PG - Рекомендуется присутствие родителей
Качество: BDRip-AVC 60fps
Формат: MKV
Видео: AVC, 1024x552 (1.855), 4050 kbps, 59,940 fps, 0,120 bpp
Аудио: русский / AC3 / 5.1 / 48 kHz / 640 kbps / 16 bit |Киномания|
Навигация по главам: есть

ОтчетМедиаИнфо

General
Unique ID : 173575730934451241320645051518565011780 (0x82957843AB6AE47FA28FF2E1A684D144)
Format : Matroska
Format version : Version 4 / Version 2
File size : 3.92 GiB
Duration : 1h 59mn
Overall bit rate : 4 695 Kbps
Movie name : Tiberiumsun69
Encoded date : UTC 2015-12-19 09:54:32
Writing application : mkvmerge v8.3.0 ('Over the Horizon') 64bit
Writing library : libebml v1.3.1 + libmatroska v1.4.2
Attachment : Yes
Video
ID : 1
Format : AVC
Format/Info : Advanced Video Codec
Format profile : [email protected]
Format settings, CABAC : Yes
Format settings, ReFrames : 4 frames
Codec ID : V_MPEG4/ISO/AVC
Duration : 1h 59mn
Bit rate : 4 050 Kbps
Width : 1 024 pixels
Height : 552 pixels
Display aspect ratio : 1.855
Frame rate : 59.940 fps
Color space : YUV
Chroma subsampling : 4:2:0
Bit depth : 8 bits
Scan type : Progressive
Bits/(Pixel*Frame) : 0.120
Stream size : 3.31 GiB (84%)
Title : Tiberiumsun69
Writing library : x264 core 146 r2538 121396c
Encoding settings : cabac=1 / ref=3 / deblock=1:0:0 / analyse=0x3:0x113 / me=umh / subme=9 / psy=1 / psy_rd=1.00:0.10 / mixed_ref=1 / me_range=32 / chroma_me=1 / trellis=2 / 8x8dct=1 / cqm=0 / deadzone=21,11 / fast_pskip=0 / chroma_qp_offset=-3 / threads=12 / lookahead_threads=3 / sliced_threads=0 / nr=0 / decimate=1 / interlaced=0 / bluray_compat=0 / constrained_intra=0 / bframes=16 / b_pyramid=2 / b_adapt=2 / b_bias=0 / direct=3 / weightb=1 / open_gop=0 / weightp=2 / keyint=250 / keyint_min=25 / scenecut=40 / intra_refresh=0 / rc_lookahead=40 / rc=2pass / mbtree=0 / bitrate=4050 / ratetol=1.0 / qcomp=0.60 / qpmin=0 / qpmax=69 / qpstep=4 / cplxblur=20.0 / qblur=0.5 / vbv_maxrate=14000 / vbv_bufsize=14000 / nal_hrd=none / filler=0 / ip_ratio=1.40 / pb_ratio=1.30 / aq=1:1.00
Language : English
Default : Yes
Forced : No
Audio
ID : 2
Format : AC-3
Format/Info : Audio Coding 3
Mode extension : CM (complete main)
Codec ID : A_AC3
Duration : 1h 59mn
Bit rate mode : Constant
Bit rate : 640 Kbps
Channel(s) : 6 channels
Channel positions : Front: L C R, Side: L R, LFE
Sampling rate : 48.0 KHz
Bit depth : 16 bits
Compression mode : Lossy
Stream size : 547 MiB (14%)
Title : MVO Киномания
Language : Russian
Default : Yes
Forced : No
Text #1
ID : 3
Format : UTF-8
Codec ID : S_TEXT/UTF8
Codec ID/Info : UTF-8 Plain Text
Title : Полные
Language : Russian
Default : No
Forced : No
Text #2
ID : 4
Format : UTF-8
Codec ID : S_TEXT/UTF8
Codec ID/Info : UTF-8 Plain Text
Title : Полные
Language : English
Default : No
Forced : No
Menu
00:00:00.000 : :Chapter 01
00:07:18.271 : :Chapter 02
00:11:47.455 : :Chapter 03
00:16:21.730 : :Chapter 04
00:22:15.541 : :Chapter 05
00:26:00.016 : :Chapter 06
00:32:55.556 : :Chapter 07
00:33:57.535 : :Chapter 08
00:40:11.074 : :Chapter 09
00:47:33.809 : :Chapter 10
00:54:56.751 : :Chapter 11
00:57:23.189 : :Chapter 12
01:02:37.587 : :Chapter 13
01:10:41.695 : :Chapter 14
01:17:35.984 : :Chapter 15
01:19:15.417 : :Chapter 16
01:22:03.792 : :Chapter 17
01:25:22.992 : :Chapter 18
01:29:15.850 : :Chapter 19
01:34:18.402 : :Chapter 20
01:39:24.124 : :Chapter 21
01:47:10.674 : :Chapter 22
01:48:34.049 : :Chapter 23
01:54:39.581 : :Chapter 24

Рокки 2

Название: Рокки 2
Оригинальное название: Rocky II
Год выпуска: 1979
Страна: США
Жанр: драма, спорт
Продолжительность: 01:59:10
Перевод: Профессиональный (многоголосый)
Субтитры: русские (Полные), английские (Полные)
Режиссер: Сильвестр Сталлоне
В ролях: Сильвестр Сталлоне (Rocky Balboa), Карл Уэзерс (Apollo Creed), Талия Шайр (Adrian), Бёрджесс Мередит (Mickey), Берт Янг (Paulie), Тони Бертон (Apollo's Trainer), Джо Спинелл (Gazzo), Леонард Гейнс (Agent), Сильвия Милс (Mary Anne Creed), Фрэнк МакРей (Meat Foreman), Аль Сильвани (Cutman), Джон Плешетт (Director)
Описание:
Проиграв по очкам в незабываемом поединке за звание чемпиона мира в первой части, Рокки Бальбоа пытается бросить спорт и начать новую спокойную жизнь. Однако, это у него не получается, ведь бокс - его призвание.
В итоге, несмотря на протесты молодой жены, Рокки принимает вызов своего старого соперника Апполо Крида на матч-реванш. Апполо пребывает в прекрасной физической форме и горит желанием отомстить за нанесенные ему в первом поединке побои. Так что у Рокки есть все шансы потерять не только жену, но и здоровье.
Рейтинг:

MPAA: PG - Рекомендуется присутствие родителей
Качество: BDRip-AVC 60fps
Формат: MKV
Видео: AVC, 1024x552 (1.855), 4050 kbps, 59,940 fps, 0,120 bpp
Аудио: русский / AC3 / 5.1 / 48 kHz / 448 kbps / 16 bit |Киномания|
Навигация по главам: есть-

ОтчетМедиаИнфо

General
Unique ID : 187281011358689519956246973071487619718 (0x8CE502C26AFF54B58320383423EB5286)
Format : Matroska
Format version : Version 4 / Version 2
File size : 3.75 GiB
Duration : 1h 59mn
Overall bit rate : 4 503 Kbps
Movie name : Tiberiumsun69
Encoded date : UTC 2015-12-19 10:09:07
Writing application : mkvmerge v8.3.0 ('Over the Horizon') 64bit
Writing library : libebml v1.3.1 + libmatroska v1.4.2
Attachment : Yes
Video
ID : 1
Format : AVC
Format/Info : Advanced Video Codec
Format profile : [email protected]
Format settings, CABAC : Yes
Format settings, ReFrames : 4 frames
Codec ID : V_MPEG4/ISO/AVC
Duration : 1h 59mn
Bit rate : 4 050 Kbps
Width : 1 024 pixels
Height : 552 pixels
Display aspect ratio : 1.855
Frame rate : 59.940 fps
Color space : YUV
Chroma subsampling : 4:2:0
Bit depth : 8 bits
Scan type : Progressive
Bits/(Pixel*Frame) : 0.120
Stream size : 3.30 GiB (88%)
Title : Tiberiumsun69
Writing library : x264 core 146 r2538 121396c
Encoding settings : cabac=1 / ref=3 / deblock=1:0:0 / analyse=0x3:0x113 / me=umh / subme=9 / psy=1 / psy_rd=1.00:0.10 / mixed_ref=1 / me_range=32 / chroma_me=1 / trellis=2 / 8x8dct=1 / cqm=0 / deadzone=21,11 / fast_pskip=0 / chroma_qp_offset=-3 / threads=12 / lookahead_threads=3 / sliced_threads=0 / nr=0 / decimate=1 / interlaced=0 / bluray_compat=0 / constrained_intra=0 / bframes=16 / b_pyramid=2 / b_adapt=2 / b_bias=0 / direct=3 / weightb=1 / open_gop=0 / weightp=2 / keyint=250 / keyint_min=25 / scenecut=40 / intra_refresh=0 / rc_lookahead=40 / rc=2pass / mbtree=0 / bitrate=4050 / ratetol=1.0 / qcomp=0.60 / qpmin=0 / qpmax=69 / qpstep=4 / cplxblur=20.0 / qblur=0.5 / vbv_maxrate=14000 / vbv_bufsize=14000 / nal_hrd=none / filler=0 / ip_ratio=1.40 / pb_ratio=1.30 / aq=1:1.00
Language : English
Default : Yes
Forced : No
Audio
ID : 2
Format : AC-3
Format/Info : Audio Coding 3
Mode extension : CM (complete main)
Codec ID : A_AC3
Duration : 1h 59mn
Bit rate mode : Constant
Bit rate : 448 Kbps
Channel(s) : 6 channels
Channel positions : Front: L C R, Side: L R, LFE
Sampling rate : 48.0 KHz
Bit depth : 16 bits
Compression mode : Lossy
Stream size : 382 MiB (10%)
Title : MVO Киномания
Language : Russian
Default : Yes
Forced : No
Text #1
ID : 3
Format : UTF-8
Codec ID : S_TEXT/UTF8
Codec ID/Info : UTF-8 Plain Text
Title : Полные
Language : Russian
Default : No
Forced : No
Text #2
ID : 4
Format : UTF-8
Codec ID : S_TEXT/UTF8
Codec ID/Info : UTF-8 Plain Text
Title : Полные
Language : English
Default : No
Forced : No
Menu
00:00:00.000 : :Chapter 01
00:07:50.051 : :Chapter 02
00:14:07.011 : :Chapter 03
00:22:02.904 : :Chapter 04
00:29:24.512 : :Chapter 05
00:40:48.904 : :Chapter 06
00:49:56.451 : :Chapter 07
01:01:53.668 : :Chapter 08
01:04:21.524 : :Chapter 09
01:12:01.734 : :Chapter 10
01:17:00.573 : :Chapter 11
01:26:27.765 : :Chapter 12
01:32:41.097 : :Chapter 13
01:41:27.539 : :Chapter 14
01:51:54.541 : :Chapter 15
01:54:41.291 : :Chapter 16

Рокки 3

Название: Рокки 3
Оригинальное название: Rocky III
Год выпуска: 1982
Страна: США
Жанр: драма, спорт
Продолжительность: 01:39:38
Перевод: Профессиональный (многоголосый)
Субтитры: русские (Полные), английские (Полные)
Режиссер: Сильвестр Сталлоне
В ролях: Сильвестр Сталлоне (Rocky Balboa), Мистер Ти (Clubber Lang), Талия Шайр (Adrian), Бёрджесс Мередит (Mickey Goldmill), Карл Уэзерс (Apollo Creed), Халк Хоган (Thunderlips), Берт Янг (Paulie), Тони Бертон (Duke), Йен Фрид (Rocky Jr.), Аль Сильвани (Al), Уолли Тейлор (Clubber's Manager), Джим Хилл (Sportscaster)
Описание:
Одержав сокрушительную победу над Аполло Кридом, Рокки купается в лучах славы. Его окружает роскошь и престиж. Он с легкостью разделывается со всеми претендентами на его чемпионский пояс. Гонорары велики, а тренировки непродолжительны, и в результате Рокки начинает терять свою знаменитую скорость и точность.
Плюс ко всему сказываются старые травмы - все-таки он пропускал слишком много ударов по голове. В итоге, когда на ринге появляется молодой непробиваемый, подобный урагану, боксер по имени Клаббер, Рокки оказывается неспособным выдержать его сокрушительные удары и падает мертвым грузом.
После такого позора от него отворачиваются все, кроме бывшего врага, а теперь товарища по несчастью Аполло Крида.
Рейтинг:

MPAA: PG - Рекомендуется присутствие родителей
Качество: BDRip-AVC 60fps
Формат: MKV
Видео: AVC, 1024x552 (1.855), 4050 kbps, 59,940 fps, 0,120 bpp
Аудио: русский / AC3 / 5.1 / 48 kHz / 640 kbps / 16 bit |Киномания|
Навигация по главам: есть

ОтчетМедиаИнфо

General
Unique ID : 242442402966688191638955347591181920581 (0xB664B5577DFD1CC4AC3DD89F76046945)
Format : Matroska
Format version : Version 4 / Version 2
File size : 3.27 GiB
Duration : 1h 39mn
Overall bit rate : 4 695 Kbps
Movie name : Tiberiumsun69
Encoded date : UTC 2015-12-19 10:16:49
Writing application : mkvmerge v8.3.0 ('Over the Horizon') 64bit
Writing library : libebml v1.3.1 + libmatroska v1.4.2
Attachment : Yes
Video
ID : 1
Format : AVC
Format/Info : Advanced Video Codec
Format profile : [email protected]
Format settings, CABAC : Yes
Format settings, ReFrames : 4 frames
Codec ID : V_MPEG4/ISO/AVC
Duration : 1h 39mn
Bit rate : 4 050 Kbps
Width : 1 024 pixels
Height : 552 pixels
Display aspect ratio : 1.855
Frame rate : 59.940 fps
Color space : YUV
Chroma subsampling : 4:2:0
Bit depth : 8 bits
Scan type : Progressive
Bits/(Pixel*Frame) : 0.120
Stream size : 2.76 GiB (84%)
Title : Tiberiumsun69
Writing library : x264 core 146 r2538 121396c
Encoding settings : cabac=1 / ref=3 / deblock=1:0:0 / analyse=0x3:0x113 / me=umh / subme=9 / psy=1 / psy_rd=1.00:0.10 / mixed_ref=1 / me_range=32 / chroma_me=1 / trellis=2 / 8x8dct=1 / cqm=0 / deadzone=21,11 / fast_pskip=0 / chroma_qp_offset=-3 / threads=12 / lookahead_threads=3 / sliced_threads=0 / nr=0 / decimate=1 / interlaced=0 / bluray_compat=0 / constrained_intra=0 / bframes=16 / b_pyramid=2 / b_adapt=2 / b_bias=0 / direct=3 / weightb=1 / open_gop=0 / weightp=2 / keyint=250 / keyint_min=25 / scenecut=40 / intra_refresh=0 / rc_lookahead=40 / rc=2pass / mbtree=0 / bitrate=4050 / ratetol=1.0 / qcomp=0.60 / qpmin=0 / qpmax=69 / qpstep=4 / cplxblur=20.0 / qblur=0.5 / vbv_maxrate=14000 / vbv_bufsize=14000 / nal_hrd=none / filler=0 / ip_ratio=1.40 / pb_ratio=1.30 / aq=1:1.00
Language : English
Default : Yes
Forced : No
Audio
ID : 2
Format : AC-3
Format/Info : Audio Coding 3
Mode extension : CM (complete main)
Codec ID : A_AC3
Duration : 1h 39mn
Bit rate mode : Constant
Bit rate : 640 Kbps
Channel(s) : 6 channels
Channel positions : Front: L C R, Side: L R, LFE
Sampling rate : 48.0 KHz
Bit depth : 16 bits
Compression mode : Lossy
Stream size : 456 MiB (14%)
Title : MVO Киномания
Language : Russian
Default : Yes
Forced : No
Text #1
ID : 3
Format : UTF-8
Codec ID : S_TEXT/UTF8
Codec ID/Info : UTF-8 Plain Text
Title : Полные
Language : Russian
Default : No
Forced : No
Text #2
ID : 4
Format : UTF-8
Codec ID : S_TEXT/UTF8
Codec ID/Info : UTF-8 Plain Text
Title : Полные
Language : English
Default : No
Forced : No
Menu
00:00:00.000 : :Chapter 01
00:03:12.442 : :Chapter 02
00:06:51.952 : :Chapter 03
00:12:58.736 : :Chapter 04
00:23:07.636 : :Chapter 05
00:33:45.940 : :Chapter 06
00:37:56.815 : :Chapter 07
00:48:27.154 : :Chapter 08
00:54:41.695 : :Chapter 09
00:58:54.948 : :Chapter 10
01:03:39.482 : :Chapter 11
01:10:44.615 : :Chapter 12
01:15:28.689 : :Chapter 13
01:18:54.146 : :Chapter 14
01:34:32.957 : :Chapter 15
01:36:25.237 : :Chapter 16

Рокки 4

Название: Рокки 4
Оригинальное название: Rocky IV
Год выпуска: 1985
Страна: США
Жанр: драма, спорт
Продолжительность: 01:31:31
Перевод: Профессиональный (многоголосый)
Субтитры: русские (Полные), английские (Полные)
Режиссер: Сильвестр Сталлоне
В ролях: Сильвестр Сталлоне (Rocky Balboa), Талия Шайр (Adrian), Берт Янг (Paulie), Карл Уэзерс (Apollo Creed), Бриджит Нильсен (Ludmilla), Тони Бертон (Duke), Майкл Патаки (Nicoli Koloff), Дольф Лундгрен (Drago), Стью Нэхен (Commentator #1), Р.Дж. Адамс (Sports Announcer), Аль Бандиеро (American Commentator #2), Доминик Барто (Russian Government Official)
Описание:
Рокки Бальбоа счастлив в своей семейной жизни, и даже вечное напускное бурчанье Поли Пеннино, брата Адрианы, не способно испортить Рокки хорошее настроение. Но в жизнь Бальбоа все-таки врывается новая трагедия...
Его друг и тренер Аполло Крид соглашается принять участие в показательном поединке с чемпионом мира среди боксеров-любителей Иваном Драго, капитаном Советской Армии. Организаторы матча назвали поединок показательным, но Иван Драго превратил бой боксерский в бой настоящий: русский гигант, словно кувалдой, уложил Крида на ринг смертельным ударом.
Чтобы в честной спортивной схватке отомстить за гибель друга, Рокки Бальбоа возвращается в большой бокс. Для подготовки к поединку, который, по условиям контракта, состоится в Москве, Рокки едет в Россию, где начинает вновь набирать спортивную форму...
Рейтинг:

MPAA: PG - Рекомендуется присутствие родителей
Качество: BDRip-AVC 60fps
Формат: MKV
Видео: AVC, 1024x552 (1.855), 4050 kbps, 59,940 fps, 0,120 bpp
Аудио: русский / AC3 / 5.1 / 48 kHz / 448 kbps / 16 bit |Киномания|
Навигация по главам: есть

ОтчетМедиаИнфо

General
Unique ID : 231550357419076350099591854344249403028 (0xAE32FA08ED00124FBD358D36CA2DE694)
Format : Matroska
Format version : Version 4 / Version 2
File size : 2.88 GiB
Duration : 1h 31mn
Overall bit rate : 4 504 Kbps
Movie name : Tiberiumsun69
Encoded date : UTC 2015-12-19 10:29:08
Writing application : mkvmerge v8.3.0 ('Over the Horizon') 64bit
Writing library : libebml v1.3.1 + libmatroska v1.4.2
Attachment : Yes / Yes
Video
ID : 1
Format : AVC
Format/Info : Advanced Video Codec
Format profile : [email protected]
Format settings, CABAC : Yes
Format settings, ReFrames : 4 frames
Codec ID : V_MPEG4/ISO/AVC
Duration : 1h 31mn
Bit rate : 4 050 Kbps
Width : 1 024 pixels
Height : 552 pixels
Display aspect ratio : 1.855
Frame rate : 59.940 fps
Color space : YUV
Chroma subsampling : 4:2:0
Bit depth : 8 bits
Scan type : Progressive
Bits/(Pixel*Frame) : 0.120
Stream size : 2.54 GiB (88%)
Title : Tiberiumsun69
Writing library : x264 core 146 r2538 121396c
Encoding settings : cabac=1 / ref=3 / deblock=1:0:0 / analyse=0x3:0x113 / me=umh / subme=9 / psy=1 / psy_rd=1.00:0.10 / mixed_ref=1 / me_range=32 / chroma_me=1 / trellis=2 / 8x8dct=1 / cqm=0 / deadzone=21,11 / fast_pskip=0 / chroma_qp_offset=-3 / threads=12 / lookahead_threads=3 / sliced_threads=0 / nr=0 / decimate=1 / interlaced=0 / bluray_compat=0 / constrained_intra=0 / bframes=16 / b_pyramid=2 / b_adapt=2 / b_bias=0 / direct=3 / weightb=1 / open_gop=0 / weightp=2 / keyint=250 / keyint_min=25 / scenecut=40 / intra_refresh=0 / rc_lookahead=40 / rc=2pass / mbtree=0 / bitrate=4050 / ratetol=1.0 / qcomp=0.60 / qpmin=0 / qpmax=69 / qpstep=4 / cplxblur=20.0 / qblur=0.5 / vbv_maxrate=14000 / vbv_bufsize=14000 / nal_hrd=none / filler=0 / ip_ratio=1.40 / pb_ratio=1.30 / aq=1:1.00
Language : English
Default : Yes
Forced : No
Audio
ID : 2
Format : AC-3
Format/Info : Audio Coding 3
Mode extension : CM (complete main)
Codec ID : A_AC3
Duration : 1h 31mn
Bit rate mode : Constant
Bit rate : 448 Kbps
Channel(s) : 6 channels
Channel positions : Front: L C R, Side: L R, LFE
Sampling rate : 48.0 KHz
Bit depth : 16 bits
Compression mode : Lossy
Stream size : 293 MiB (10%)
Title : MVO Киномания
Language : Russian
Default : Yes
Forced : No
Text #1
ID : 3
Format : UTF-8
Codec ID : S_TEXT/UTF8
Codec ID/Info : UTF-8 Plain Text
Title : Полные
Language : Russian
Default : No
Forced : No
Text #2
ID : 4
Format : UTF-8
Codec ID : S_TEXT/UTF8
Codec ID/Info : UTF-8 Plain Text
Title : Полные
Language : English
Default : No
Forced : No
Menu
00:00:00.000 : :Chapter 01
00:08:04.817 : :Chapter 02
00:12:33.586 : :Chapter 03
00:20:11.210 : :Chapter 04
00:26:20.036 : :Chapter 05
00:33:56.868 : :Chapter 06
00:41:20.768 : :Chapter 07
00:45:47.035 : :Chapter 08
00:48:22.900 : :Chapter 09
00:55:06.969 : :Chapter 10
00:59:57.760 : :Chapter 11
01:04:11.264 : :Chapter 12
01:09:59.486 : :Chapter 13
01:20:39.376 : :Chapter 14
01:24:51.211 : :Chapter 15
01:27:22.946 : :Chapter 16

Рокки 5

Название: Рокки 5
Оригинальное название: Rocky V
Год выпуска: 1990
Страна: США
Жанр: драма, спорт
Продолжительность: 01:44:10
Перевод: Профессиональный (многоголосый)
Субтитры: русские (Полные), английские (Полные)
Режиссер: Джон Г. Эвилдсен
В ролях: Сильвестр Сталлоне (Rocky Balboa), Талия Шайр (Adrian), Берт Янг (Paulie), Сэйдж Сталлоне (Rocky Balboa Jr.), Бёрджесс Мередит (Mickey Goldmill), Томми Моррисон (Tommy «Machine» Gunn), Ричард Гант (George Washington Duke), Тони Бертон (Duke), Джимми Гамбина (Jimmy), Делия Шеппард (Karen), Майк Шиэн (Merlin Sheets), Майкл Энтони Уильямс (Union Cane)
Описание:
После поединка с советским чемпионом Иваном Драго, боксерская карьера Рокки подходит к концу. Здоровье потеряно, да и возраст уже ветеранский. А все заработанные потом и кровью сбережения украдены или потрачены. Так что единственное, что ему остается - это перейти на тренерскую работу.
Но и там не все спокойно, его любимый, подающий надежды ученик, бросает Рокки и уходит к другому тренеру. Но никакие удары судьбы не смогут сломить стоический характер Рокки.
Даже в сложившейся ситуации он не теряет веры в свою счастливую звезду и находит в себе силы для новых достижений.
Рейтинг:

MPAA: PG-13 - Детям до 13 лет просмотр не желателен
Качество: BDRip-AVC 60fps
Формат: MKV
Видео: AVC, 1024x552 (1.855), 4050 kbps, 59,940 fps, 0,120 bpp
Аудио: русский / AC3 / 5.1 / 48 kHz / 448 kbps / 16 bit |Киномания|
Навигация по главам: есть

ОтчетМедиаИнфо

General
Unique ID : 244877101909215655925476526990554282661 (0xB8399D447AE33062BB3488F19C93BAA5)
Format : Matroska
Format version : Version 4 / Version 2
File size : 3.28 GiB
Duration : 1h 44mn
Overall bit rate : 4 505 Kbps
Movie name : Tiberiumsun69
Encoded date : UTC 2015-12-19 10:35:34
Writing application : mkvmerge v8.3.0 ('Over the Horizon') 64bit
Writing library : libebml v1.3.1 + libmatroska v1.4.2
Attachment : Yes
Video
ID : 1
Format : AVC
Format/Info : Advanced Video Codec
Format profile : [email protected]
Format settings, CABAC : Yes
Format settings, ReFrames : 4 frames
Codec ID : V_MPEG4/ISO/AVC
Duration : 1h 44mn
Bit rate : 4 050 Kbps
Width : 1 024 pixels
Height : 552 pixels
Display aspect ratio : 1.855
Frame rate : 59.940 fps
Color space : YUV
Chroma subsampling : 4:2:0
Bit depth : 8 bits
Scan type : Progressive
Bits/(Pixel*Frame) : 0.120
Stream size : 2.89 GiB (88%)
Title : Tiberiumsun69
Writing library : x264 core 146 r2538 121396c
Encoding settings : cabac=1 / ref=3 / deblock=1:0:0 / analyse=0x3:0x113 / me=umh / subme=9 / psy=1 / psy_rd=1.00:0.10 / mixed_ref=1 / me_range=32 / chroma_me=1 / trellis=2 / 8x8dct=1 / cqm=0 / deadzone=21,11 / fast_pskip=0 / chroma_qp_offset=-3 / threads=12 / lookahead_threads=3 / sliced_threads=0 / nr=0 / decimate=1 / interlaced=0 / bluray_compat=0 / constrained_intra=0 / bframes=16 / b_pyramid=2 / b_adapt=2 / b_bias=0 / direct=3 / weightb=1 / open_gop=0 / weightp=2 / keyint=250 / keyint_min=25 / scenecut=40 / intra_refresh=0 / rc_lookahead=40 / rc=2pass / mbtree=0 / bitrate=4050 / ratetol=1.0 / qcomp=0.60 / qpmin=0 / qpmax=69 / qpstep=4 / cplxblur=20.0 / qblur=0.5 / vbv_maxrate=14000 / vbv_bufsize=14000 / nal_hrd=none / filler=0 / ip_ratio=1.40 / pb_ratio=1.30 / aq=1:1.00
Language : English
Default : Yes
Forced : No
Audio
ID : 2
Format : AC-3
Format/Info : Audio Coding 3
Mode extension : CM (complete main)
Codec ID : A_AC3
Duration : 1h 44mn
Bit rate mode : Constant
Bit rate : 448 Kbps
Channel(s) : 6 channels
Channel positions : Front: L C R, Side: L R, LFE
Sampling rate : 48.0 KHz
Bit depth : 16 bits
Compression mode : Lossy
Stream size : 334 MiB (10%)
Title : MVO Киномания
Language : Russian
Default : Yes
Forced : No
Text #1
ID : 3
Format : UTF-8
Codec ID : S_TEXT/UTF8
Codec ID/Info : UTF-8 Plain Text
Title : Полные
Language : Russian
Default : No
Forced : No
Text #2
ID : 4
Format : UTF-8
Codec ID : S_TEXT/UTF8
Codec ID/Info : UTF-8 Plain Text
Title : Полные
Language : English
Default : No
Forced : No
Menu
00:00:00.000 : :Chapter 01
00:05:26.326 : :Chapter 02
00:09:31.570 : :Chapter 03
00:14:58.522 : :Chapter 04
00:20:10.375 : :Chapter 05
00:26:51.693 : :Chapter 06
00:32:25.401 : :Chapter 07
00:38:22.675 : :Chapter 08
00:43:52.129 : :Chapter 09
00:51:32.047 : :Chapter 10
00:58:16.951 : :Chapter 11
01:03:51.786 : :Chapter 12
01:15:59.513 : :Chapter 13
01:18:50.809 : :Chapter 14
01:24:31.816 : :Chapter 15
01:38:39.580 : :Chapter 16

Рокки Бальбоа

Название: Рокки Бальбоа
Оригинальное название: Rocky Balboa
Год выпуска: 2006
Страна: США
Жанр: драма, спорт
Продолжительность: 01:41:47
Перевод: Дубляж
Субтитры: русские (Полные), английские (Полные)
Режиссер: Сильвестр Сталлоне
В ролях: Сильвестр Сталлоне (Rocky Balboa), Берт Янг (Paulie), Антонио Тэрвер (Mason «The Line» Dixon), Джеральдин Хьюз (Marie), Майло Вентимилья (Robert Balboa Jr.), Тони Бертон (Duke), А.Дж. Бенза (L.C.), Джеймс Френсис Келли III (Steps), Талия Шайр (Adrian, хроника), Лу ДиБелла (Lou DiBella), Майк Тайсон (Mike Tyson), Генри Дж. Сандерс (Martin)
Описание:
Рокки отошел от дел, занявшись ресторанным бизнесом и все еще тяжело переживает смерть своей жены Эдриан. Пытаясь развеять образовавшуюся пустоту, Бальбоа решает вернуться на ринг для боев местного значения с боксерами в легком весе. Но когда он соглашается выступить против действующего чемпиона-тяжеловеса Мэйсона Диксона, пресса неожиданно проявляет к возвращению Рокки пристальный интерес.
Рейтинг:

MPAA: PG - Рекомендуется присутствие родителей
Качество: BDRip-AVC 60fps
Формат: MKV
Видео: AVC, 1024x552 (1.855), 4050 kbps, 59,940 fps, 0,120 bpp
Аудио: русский / AC3 / 5.1 / 48 kHz / 448 kbps / 16 bit |Киномания|
Навигация по главам: есть

ОтчетМедиаИнфо

General
Unique ID : 209064913812461631814612774761447755206 (0x9D4870128F91F2F291F72D7528C30DC6)
Format : Matroska
Format version : Version 4 / Version 2
File size : 3.20 GiB
Duration : 1h 41mn
Overall bit rate : 4 506 Kbps
Movie name : Tiberiumsun69
Encoded date : UTC 2015-12-19 10:43:02
Writing application : mkvmerge v8.3.0 ('Over the Horizon') 64bit
Writing library : libebml v1.3.1 + libmatroska v1.4.2
Attachment : Yes
Video
ID : 1
Format : AVC
Format/Info : Advanced Video Codec
Format profile : [email protected]
Format settings, CABAC : Yes
Format settings, ReFrames : 4 frames
Codec ID : V_MPEG4/ISO/AVC
Duration : 1h 41mn
Bit rate : 4 050 Kbps
Width : 1 024 pixels
Height : 552 pixels
Display aspect ratio : 1.855
Frame rate : 59.940 fps
Color space : YUV
Chroma subsampling : 4:2:0
Bit depth : 8 bits
Scan type : Progressive
Bits/(Pixel*Frame) : 0.120
Stream size : 2.82 GiB (88%)
Title : Tiberiumsun69
Writing library : x264 core 146 r2538 121396c
Encoding settings : cabac=1 / ref=3 / deblock=1:0:0 / analyse=0x3:0x113 / me=umh / subme=9 / psy=1 / psy_rd=1.00:0.10 / mixed_ref=1 / me_range=32 / chroma_me=1 / trellis=2 / 8x8dct=1 / cqm=0 / deadzone=21,11 / fast_pskip=0 / chroma_qp_offset=-3 / threads=12 / lookahead_threads=3 / sliced_threads=0 / nr=0 / decimate=1 / interlaced=0 / bluray_compat=0 / constrained_intra=0 / bframes=16 / b_pyramid=2 / b_adapt=2 / b_bias=0 / direct=3 / weightb=1 / open_gop=0 / weightp=2 / keyint=250 / keyint_min=25 / scenecut=40 / intra_refresh=0 / rc_lookahead=40 / rc=2pass / mbtree=0 / bitrate=4050 / ratetol=1.0 / qcomp=0.60 / qpmin=0 / qpmax=69 / qpstep=4 / cplxblur=20.0 / qblur=0.5 / vbv_maxrate=14000 / vbv_bufsize=14000 / nal_hrd=none / filler=0 / ip_ratio=1.40 / pb_ratio=1.30 / aq=1:1.00
Language : English
Default : Yes
Forced : No
Audio
ID : 2
Format : AC-3
Format/Info : Audio Coding 3
Mode extension : CM (complete main)
Codec ID : A_AC3
Duration : 1h 41mn
Bit rate mode : Constant
Bit rate : 448 Kbps
Channel(s) : 6 channels
Channel positions : Front: L C R, Side: L R, LFE
Sampling rate : 48.0 KHz
Bit depth : 16 bits
Compression mode : Lossy
Stream size : 326 MiB (10%)
Title : Дубляж
Language : Russian
Default : Yes
Forced : No
Text #1
ID : 3
Format : UTF-8
Codec ID : S_TEXT/UTF8
Codec ID/Info : UTF-8 Plain Text
Title : Полные
Language : Russian
Default : No
Forced : No
Text #2
ID : 4
Format : UTF-8
Codec ID : S_TEXT/UTF8
Codec ID/Info : UTF-8 Plain Text
Title : Полные
Language : English
Default : No
Forced : No
Menu
00:00:00.000 : :Chapter 01
00:11:38.114 : :Chapter 02
00:16:42.876 : :Chapter 03
00:25:20.643 : :Chapter 04
00:30:46.678 : :Chapter 05
00:40:48.654 : :Chapter 06
00:43:18.429 : :Chapter 07
00:46:09.641 : :Chapter 08
00:51:22.579 : :Chapter 09
01:00:41.970 : :Chapter 10
01:05:03.649 : :Chapter 11
01:06:26.564 : :Chapter 12
01:13:23.857 : :Chapter 13
01:21:23.795 : :Chapter 14
01:29:49.008 : :Chapter 15
01:33:10.710 : :Chapter 16
Авторство группы

[Цитировать]



Показать сообщения:    

Текущее время: 05-Дек 05:33

Часовой пояс: UTC + 3


Вы не можете начинать темы
Вы не можете отвечать на сообщения
Вы не можете редактировать свои сообщения
Вы не можете удалять свои сообщения
Вы не можете голосовать в опросах
Вы не можете прикреплять файлы к сообщениям
Вы не можете скачивать файлы

!ВНИМАНИЕ!
Сайт не предоставляет электронные версии произведений, а занимается лишь коллекционированием и каталогизацией ссылок, присылаемых и публикуемых на форуме нашими читателями. Если вы являетесь правообладателем какого-либо представленного материала и не желаете, чтобы ссылка на него находилась в нашем каталоге, свяжитесь с нами, и мы незамедлительно удалим ее. Файлы для обмена на трекере предоставлены пользователями сайта, и администрация не несет ответственности за их содержание. Просьба не заливать файлы, защищенные авторскими правами, а также файлы нелегального содержания!