[ Сегодня идет свободное скачивание без начисления Download ]


Статистика раздачи
Качаю: [ 1 ]
Скачал: [ 1 ]
 
   
 
Top  
 
 
Джеймс Бонд - Агент 007: Коллекция 25 в 1 Страна: Великобритания, США, Германия (ФРГ)
Жанр: Боевик, триллер, криминал
Перевод: Профессиональный дублированный, многоголосый, закадровый
Язык субтитров: Русские, английские
Субтитры: русские (Форсированные), русские (Полные), английские (Полные)
Продолжительность: 50:33:11
Режиссер: Теренс Янг, Гай Хэмилтон, Льюис Гилберт, Питер Р. Хант, Джон Глен, Мартин Кэмпбелл, Роджер Споттисвуд, Майкл ЭптидЛи Тамахори, Марк Форстер, Сэм Мендес
Актеры: Шон Коннери, Джордж Лэзенби, Роджер Мур, Тимоти Далтон, Пирс Броснан, Дэниэл Крэйг
Описание:
Впервые в истории в рамках празднования "Золотого" юбилея самого известного Агента 007 - Джеймса Бонда, компанией MGM и Двадцатым Веком Фокс представляется коллекционное издание "BOND 50" на 23-х Blu-Ray дисках.Плюс 2 издания созданные без участия EON.
Качество видео: BDRip-AVC 60fps
Формат: MKV
Видео: AVC, 1024x424 (2.40:1), 3300 kbps, 59,940 fps, 0,127 bpp
Аудио: русский / AC3 / 5.1 / 48 kHz / 640 kbps / 16 bit |Дубляж|

MI 25 в 1

Доктор Ноу MI

General
Unique ID : 232170183471686222884044767089683366846 (0xAEAA59D194B23B33A8C463CF684483BE)
Format : Matroska
Format version : Version 4 / Version 2
File size : 3.95 GiB
Duration : 1h 49mn
Overall bit rate : 5 144 Kbps
Movie name : Tiberiumsun69
Encoded date : UTC 2015-09-13 04:20:16
Writing application : mkvmerge v8.3.0 ('Over the Horizon') 64bit
Writing library : libebml v1.3.1 + libmatroska v1.4.2
Attachements : Cover.png
Video
ID : 1
Format : AVC
Format/Info : Advanced Video Codec
Format profile : High@L4.1
Format settings, CABAC : Yes
Format settings, ReFrames : 4 frames
Codec ID : V_MPEG4/ISO/AVC
Duration : 1h 49mn
Bit rate : 4 500 Kbps
Width : 1 024 pixels
Height : 576 pixels
Display aspect ratio : 16:9
Frame rate mode : Constant
Frame rate : 59.880 fps
Original frame rate : 59.940 fps
Color space : YUV
Chroma subsampling : 4:2:0
Bit depth : 8 bits
Scan type : Progressive
Bits/(Pixel*Frame) : 0.127
Stream size : 3.38 GiB (86%)
Title : Tiberiumsun69
Writing library : x264 core 146 r2538 121396c
Encoding settings : cabac=1 / ref=3 / deblock=1:0:0 / analyse=0x3:0x113 / me=umh / subme=11 / psy=1 / psy_rd=1.00:0.10 / mixed_ref=1 / me_range=32 / chroma_me=1 / trellis=2 / 8x8dct=1 / cqm=0 / deadzone=21,11 / fast_pskip=0 / chroma_qp_offset=-3 / threads=12 / lookahead_threads=3 / sliced_threads=0 / nr=0 / decimate=1 / interlaced=0 / bluray_compat=0 / constrained_intra=0 / bframes=16 / b_pyramid=2 / b_adapt=2 / b_bias=0 / direct=3 / weightb=1 / open_gop=0 / weightp=2 / keyint=600 / keyint_min=59 / scenecut=40 / intra_refresh=0 / rc_lookahead=40 / rc=2pass / mbtree=0 / bitrate=4500 / ratetol=1.0 / qcomp=0.60 / qpmin=0 / qpmax=69 / qpstep=4 / cplxblur=20.0 / qblur=0.5 / vbv_maxrate=50000 / vbv_bufsize=62500 / nal_hrd=none / filler=0 / ip_ratio=1.40 / pb_ratio=1.30 / aq=1:1.00
Language : English
Default : Yes
Forced : No
Audio
ID : 2
Format : AC-3
Format/Info : Audio Coding 3
Mode extension : CM (complete main)
Format settings, Endianness : Big
Codec ID : A_AC3
Duration : 1h 49mn
Bit rate mode : Constant
Bit rate : 640 Kbps
Channel(s) : 6 channels
Channel positions : Front: L C R, Side: L R, LFE
Sampling rate : 48.0 KHz
Compression mode : Lossy
Stream size : 503 MiB (12%)
Title : Дубляж
Language : Russian
Default : Yes
Forced : No
Text #1
ID : 3
Format : UTF-8
Codec ID : S_TEXT/UTF8
Codec ID/Info : UTF-8 Plain Text
Title : Форсированные
Language : Russian
Default : Yes
Forced : No
Text #2
ID : 4
Format : UTF-8
Codec ID : S_TEXT/UTF8
Codec ID/Info : UTF-8 Plain Text
Title : Полные
Language : Russian
Default : No
Forced : No
Text #3
ID : 5
Format : UTF-8
Codec ID : S_TEXT/UTF8
Codec ID/Info : UTF-8 Plain Text
Title : Полные
Language : English
Default : No
Forced : No
Menu
00:00:00.000 : en:Chapter 01
00:02:50.670 : en:Chapter 02
00:06:33.684 : en:Chapter 03
00:09:41.914 : en:Chapter 04
00:16:26.860 : en:Chapter 05
00:19:00.848 : en:Chapter 06
00:22:06.491 : en:Chapter 07
00:24:32.471 : en:Chapter 08
00:26:43.602 : en:Chapter 09
00:28:28.123 : en:Chapter 10
00:31:22.255 : en:Chapter 11
00:36:07.582 : en:Chapter 12
00:37:39.256 : en:Chapter 13
00:41:18.058 : en:Chapter 14
00:44:38.217 : en:Chapter 15
00:46:44.676 : en:Chapter 16
00:48:18.895 : en:Chapter 17
00:51:24.247 : en:Chapter 18
00:55:28.575 : en:Chapter 19
00:58:50.109 : en:Chapter 20
01:01:55.920 : en:Chapter 21
01:08:08.125 : en:Chapter 22
01:12:39.855 : en:Chapter 23
01:15:17.930 : en:Chapter 24
01:18:04.304 : en:Chapter 25
01:20:54.432 : en:Chapter 26
01:26:28.600 : en:Chapter 27
01:34:00.760 : en:Chapter 28
01:39:03.270 : en:Chapter 29
01:43:05.429 : en:Chapter 30
01:45:19.021 : en:Chapter 31
01:47:30.193 : en:Chapter 32
01:49:50.208 : en:Chapter 33

Из России с любовью MI

General
Unique ID : 173084161656387404075480132137455525494 (0x8236CC07194DCC4FA2C3ED3F1C151E76)
Format : Matroska
Format version : Version 4 / Version 2
File size : 3.94 GiB
Duration : 1h 55mn
Overall bit rate : 4 896 Kbps
Movie name : Tiberiumsun69
Encoded date : UTC 2015-09-13 04:25:17
Writing application : mkvmerge v8.3.0 ('Over the Horizon') 64bit
Writing library : libebml v1.3.1 + libmatroska v1.4.2
Attachements : Cover.png
Video
ID : 1
Format : AVC
Format/Info : Advanced Video Codec
Format profile : High@L4.1
Format settings, CABAC : Yes
Format settings, ReFrames : 4 frames
Codec ID : V_MPEG4/ISO/AVC
Duration : 1h 55mn
Bit rate : 4 250 Kbps
Width : 1 024 pixels
Height : 576 pixels
Display aspect ratio : 16:9
Frame rate mode : Constant
Frame rate : 59.880 fps
Original frame rate : 59.940 fps
Color space : YUV
Chroma subsampling : 4:2:0
Bit depth : 8 bits
Scan type : Progressive
Bits/(Pixel*Frame) : 0.120
Stream size : 3.35 GiB (85%)
Title : Tiberiumsun69
Writing library : x264 core 146 r2538 121396c
Encoding settings : cabac=1 / ref=3 / deblock=1:0:0 / analyse=0x3:0x113 / me=umh / subme=11 / psy=1 / psy_rd=1.00:0.10 / mixed_ref=1 / me_range=32 / chroma_me=1 / trellis=2 / 8x8dct=1 / cqm=0 / deadzone=21,11 / fast_pskip=0 / chroma_qp_offset=-3 / threads=12 / lookahead_threads=3 / sliced_threads=0 / nr=0 / decimate=1 / interlaced=0 / bluray_compat=0 / constrained_intra=0 / bframes=16 / b_pyramid=2 / b_adapt=2 / b_bias=0 / direct=3 / weightb=1 / open_gop=0 / weightp=2 / keyint=600 / keyint_min=59 / scenecut=40 / intra_refresh=0 / rc_lookahead=40 / rc=2pass / mbtree=0 / bitrate=4250 / ratetol=1.0 / qcomp=0.60 / qpmin=0 / qpmax=69 / qpstep=4 / cplxblur=20.0 / qblur=0.5 / vbv_maxrate=50000 / vbv_bufsize=62500 / nal_hrd=none / filler=0 / ip_ratio=1.40 / pb_ratio=1.30 / aq=1:1.00
Language : English
Default : Yes
Forced : No
Audio
ID : 2
Format : AC-3
Format/Info : Audio Coding 3
Mode extension : CM (complete main)
Format settings, Endianness : Big
Codec ID : A_AC3
Duration : 1h 55mn
Bit rate mode : Constant
Bit rate : 640 Kbps
Channel(s) : 6 channels
Channel positions : Front: L C R, Side: L R, LFE
Sampling rate : 48.0 KHz
Compression mode : Lossy
Stream size : 527 MiB (13%)
Title : Дубляж
Language : Russian
Default : Yes
Forced : No
Text #1
ID : 3
Format : UTF-8
Codec ID : S_TEXT/UTF8
Codec ID/Info : UTF-8 Plain Text
Title : Полные
Language : Russian
Default : No
Forced : No
Text #2
ID : 4
Format : UTF-8
Codec ID : S_TEXT/UTF8
Codec ID/Info : UTF-8 Plain Text
Title : Полные
Language : English
Default : No
Forced : No
Menu
00:00:00.000 : en:Chapter 01
00:03:10.064 : en:Chapter 02
00:05:37.003 : en:Chapter 03
00:08:04.192 : en:Chapter 04
00:11:16.550 : en:Chapter 05
00:14:03.008 : en:Chapter 06
00:17:53.280 : en:Chapter 07
00:19:34.965 : en:Chapter 08
00:24:27.549 : en:Chapter 09
00:29:04.492 : en:Chapter 10
00:31:36.477 : en:Chapter 11
00:33:53.489 : en:Chapter 12
00:38:21.173 : en:Chapter 13
00:48:53.764 : en:Chapter 14
00:51:34.091 : en:Chapter 15
00:55:35.165 : en:Chapter 16
00:59:50.295 : en:Chapter 17
01:03:31.933 : en:Chapter 18
01:06:43.457 : en:Chapter 19
01:09:55.733 : en:Chapter 20
01:12:06.697 : en:Chapter 21
01:14:26.879 : en:Chapter 22
01:16:16.697 : en:Chapter 23
01:20:20.649 : en:Chapter 24
01:24:27.520 : en:Chapter 25
01:26:31.603 : en:Chapter 26
01:36:26.697 : en:Chapter 27
01:39:11.820 : en:Chapter 28
01:44:09.326 : en:Chapter 29
01:45:45.339 : en:Chapter 30
01:49:12.712 : en:Chapter 31
01:53:37.393 : en:Chapter 32

Голдфингер MI

General
Unique ID : 198657131803038339380872941528207205838 (0x9573F8CD2A00CF08ADFFB39E86CA25CE)
Format : Matroska
Format version : Version 4 / Version 2
File size : 3.95 GiB
Duration : 1h 50mn
Overall bit rate : 5 144 Kbps
Movie name : Tiberiumsun69
Encoded date : UTC 2015-09-13 04:31:20
Writing application : mkvmerge v8.3.0 ('Over the Horizon') 64bit
Writing library : libebml v1.3.1 + libmatroska v1.4.2
Attachements : Cover.png
Video
ID : 1
Format : AVC
Format/Info : Advanced Video Codec
Format profile : High@L4.1
Format settings, CABAC : Yes
Format settings, ReFrames : 4 frames
Codec ID : V_MPEG4/ISO/AVC
Duration : 1h 50mn
Bit rate : 4 500 Kbps
Width : 960 pixels
Height : 576 pixels
Display aspect ratio : 5:3
Frame rate mode : Constant
Frame rate : 59.880 fps
Original frame rate : 59.940 fps
Color space : YUV
Chroma subsampling : 4:2:0
Bit depth : 8 bits
Scan type : Progressive
Bits/(Pixel*Frame) : 0.136
Stream size : 3.38 GiB (86%)
Title : Tiberiumsun69
Writing library : x264 core 146 r2538 121396c
Encoding settings : cabac=1 / ref=3 / deblock=1:0:0 / analyse=0x3:0x113 / me=umh / subme=11 / psy=1 / psy_rd=1.00:0.10 / mixed_ref=1 / me_range=32 / chroma_me=1 / trellis=2 / 8x8dct=1 / cqm=0 / deadzone=21,11 / fast_pskip=0 / chroma_qp_offset=-3 / threads=12 / lookahead_threads=3 / sliced_threads=0 / nr=0 / decimate=1 / interlaced=0 / bluray_compat=0 / constrained_intra=0 / bframes=16 / b_pyramid=2 / b_adapt=2 / b_bias=0 / direct=3 / weightb=1 / open_gop=0 / weightp=2 / keyint=600 / keyint_min=59 / scenecut=40 / intra_refresh=0 / rc_lookahead=40 / rc=2pass / mbtree=0 / bitrate=4500 / ratetol=1.0 / qcomp=0.60 / qpmin=0 / qpmax=69 / qpstep=4 / cplxblur=20.0 / qblur=0.5 / vbv_maxrate=50000 / vbv_bufsize=62500 / nal_hrd=none / filler=0 / ip_ratio=1.40 / pb_ratio=1.30 / aq=1:1.00
Language : English
Default : Yes
Forced : No
Audio
ID : 2
Format : AC-3
Format/Info : Audio Coding 3
Mode extension : CM (complete main)
Format settings, Endianness : Big
Codec ID : A_AC3
Duration : 1h 50mn
Bit rate mode : Constant
Bit rate : 640 Kbps
Channel(s) : 6 channels
Channel positions : Front: L C R, Side: L R, LFE
Sampling rate : 48.0 KHz
Compression mode : Lossy
Stream size : 504 MiB (12%)
Title : Дубляж
Language : Russian
Default : Yes
Forced : No
Text #1
ID : 3
Format : UTF-8
Codec ID : S_TEXT/UTF8
Codec ID/Info : UTF-8 Plain Text
Title : Полные
Language : Russian
Default : No
Forced : No
Text #2
ID : 4
Format : UTF-8
Codec ID : S_TEXT/UTF8
Codec ID/Info : UTF-8 Plain Text
Title : Полные
Language : English
Default : No
Forced : No
Menu
00:00:00.000 : en:Chapter 01
00:03:19.199 : en:Chapter 02
00:05:02.677 : en:Chapter 03
00:07:49.218 : en:Chapter 04
00:08:53.115 : en:Chapter 05
00:09:56.596 : en:Chapter 06
00:11:34.735 : en:Chapter 07
00:15:55.079 : en:Chapter 08
00:17:56.950 : en:Chapter 09
00:22:39.107 : en:Chapter 10
00:25:18.558 : en:Chapter 11
00:31:25.633 : en:Chapter 12
00:33:37.223 : en:Chapter 13
00:36:41.365 : en:Chapter 14
00:40:41.522 : en:Chapter 15
00:42:59.660 : en:Chapter 16
00:47:48.574 : en:Chapter 17
00:50:11.800 : en:Chapter 18
00:54:09.120 : en:Chapter 19
00:56:34.182 : en:Chapter 20
01:00:12.567 : en:Chapter 21
01:02:56.272 : en:Chapter 22
01:04:45.214 : en:Chapter 23
01:06:47.253 : en:Chapter 24
01:09:50.269 : en:Chapter 25
01:13:02.753 : en:Chapter 26
01:14:45.939 : en:Chapter 27
01:20:41.837 : en:Chapter 28
01:25:01.137 : en:Chapter 29
01:27:51.849 : en:Chapter 30
01:38:00.583 : en:Chapter 31
01:45:29.531 : en:Chapter 32
01:50:00.927 : en:Chapter 33

Шаровая молния MI

General
Unique ID : 186882795944657290598608834388229340931 (0x8C98513944241808ACA58470234BBF03)
Format : Matroska
Format version : Version 4 / Version 2
File size : 3.95 GiB
Duration : 2h 10mn
Overall bit rate : 4 335 Kbps
Movie name : Tiberiumsun69
Encoded date : UTC 2015-09-13 04:37:54
Writing application : mkvmerge v8.3.0 ('Over the Horizon') 64bit
Writing library : libebml v1.3.1 + libmatroska v1.4.2
Attachements : Cover.png
Video
ID : 1
Format : AVC
Format/Info : Advanced Video Codec
Format profile : High@L4.1
Format settings, CABAC : Yes
Format settings, ReFrames : 4 frames
Codec ID : V_MPEG4/ISO/AVC
Duration : 2h 10mn
Bit rate : 3 690 Kbps
Width : 1 024 pixels
Height : 432 pixels
Display aspect ratio : 2.40:1
Frame rate mode : Constant
Frame rate : 59.880 fps
Original frame rate : 59.940 fps
Color space : YUV
Chroma subsampling : 4:2:0
Bit depth : 8 bits
Scan type : Progressive
Bits/(Pixel*Frame) : 0.139
Stream size : 3.29 GiB (83%)
Title : Tiberiumsun69
Writing library : x264 core 146 r2538 121396c
Encoding settings : cabac=1 / ref=3 / deblock=1:0:0 / analyse=0x3:0x113 / me=umh / subme=11 / psy=1 / psy_rd=1.00:0.10 / mixed_ref=1 / me_range=32 / chroma_me=1 / trellis=2 / 8x8dct=1 / cqm=0 / deadzone=21,11 / fast_pskip=0 / chroma_qp_offset=-3 / threads=12 / lookahead_threads=3 / sliced_threads=0 / nr=0 / decimate=1 / interlaced=0 / bluray_compat=0 / constrained_intra=0 / bframes=16 / b_pyramid=2 / b_adapt=2 / b_bias=0 / direct=3 / weightb=1 / open_gop=0 / weightp=2 / keyint=600 / keyint_min=59 / scenecut=40 / intra_refresh=0 / rc_lookahead=40 / rc=2pass / mbtree=0 / bitrate=3690 / ratetol=1.0 / qcomp=0.60 / qpmin=0 / qpmax=69 / qpstep=4 / cplxblur=20.0 / qblur=0.5 / vbv_maxrate=50000 / vbv_bufsize=62500 / nal_hrd=none / filler=0 / ip_ratio=1.40 / pb_ratio=1.30 / aq=1:1.00
Language : English
Default : Yes
Forced : No
Audio
ID : 2
Format : AC-3
Format/Info : Audio Coding 3
Mode extension : CM (complete main)
Format settings, Endianness : Big
Codec ID : A_AC3
Duration : 2h 10mn
Bit rate mode : Constant
Bit rate : 640 Kbps
Channel(s) : 6 channels
Channel positions : Front: L C R, Side: L R, LFE
Sampling rate : 48.0 KHz
Compression mode : Lossy
Stream size : 597 MiB (15%)
Title : Дубляж
Language : Russian
Default : Yes
Forced : No
Text #1
ID : 3
Format : UTF-8
Codec ID : S_TEXT/UTF8
Codec ID/Info : UTF-8 Plain Text
Title : Полные
Language : Russian
Default : No
Forced : No
Text #2
ID : 4
Format : UTF-8
Codec ID : S_TEXT/UTF8
Codec ID/Info : UTF-8 Plain Text
Title : Полные
Language : English
Default : No
Forced : No
Menu
00:00:00.000 : en:Chapter 01
00:04:44.742 : en:Chapter 02
00:07:44.172 : en:Chapter 03
00:11:33.192 : en:Chapter 04
00:18:27.564 : en:Chapter 05
00:22:46.448 : en:Chapter 06
00:26:13.029 : en:Chapter 07
00:29:21.551 : en:Chapter 08
00:37:03.137 : en:Chapter 09
00:38:49.368 : en:Chapter 10
00:44:02.681 : en:Chapter 11
00:48:42.210 : en:Chapter 12
00:54:17.545 : en:Chapter 13
00:58:49.150 : en:Chapter 14
01:01:38.111 : en:Chapter 15
01:02:55.938 : en:Chapter 16
01:06:17.515 : en:Chapter 17
01:14:24.668 : en:Chapter 18
01:21:23.420 : en:Chapter 19
01:25:58.111 : en:Chapter 20
01:28:53.286 : en:Chapter 21
01:31:55.343 : en:Chapter 22
01:36:59.855 : en:Chapter 23
01:41:45.099 : en:Chapter 24
01:48:36.176 : en:Chapter 25
01:51:19.673 : en:Chapter 26
01:53:14.621 : en:Chapter 27
01:55:54.155 : en:Chapter 28
02:03:29.527 : en:Chapter 29
02:05:03.078 : en:Chapter 30
02:08:10.933 : en:Chapter 31
02:09:31.054 : en:Chapter 32
02:10:23.190 : en:Chapter 33

Живешь только дважды MI

General
Unique ID : 220466818059238988125284018382278203781 (0xA5DC5D5AA58235D196E99A0054B39985)
Format : Matroska
Format version : Version 4 / Version 2
File size : 3.79 GiB
Duration : 1h 56mn
Overall bit rate : 4 645 Kbps
Movie name : Tiberiumsun69
Encoded date : UTC 2015-09-15 16:55:43
Writing application : mkvmerge v8.3.0 ('Over the Horizon') 64bit
Writing library : libebml v1.3.1 + libmatroska v1.4.2
Attachements : Cover.png
Video
ID : 1
Format : AVC
Format/Info : Advanced Video Codec
Format profile : High@L4.1
Format settings, CABAC : Yes
Format settings, ReFrames : 4 frames
Codec ID : V_MPEG4/ISO/AVC
Duration : 1h 56mn
Bit rate : 4 000 Kbps
Width : 1 024 pixels
Height : 432 pixels
Display aspect ratio : 2.40:1
Frame rate mode : Constant
Frame rate : 59.880 fps
Original frame rate : 59.940 fps
Color space : YUV
Chroma subsampling : 4:2:0
Bit depth : 8 bits
Scan type : Progressive
Bits/(Pixel*Frame) : 0.151
Stream size : 3.20 GiB (84%)
Title : Tiberiumsun69
Writing library : x264 core 146 r2538 121396c
Encoding settings : cabac=1 / ref=3 / deblock=1:0:0 / analyse=0x3:0x113 / me=umh / subme=11 / psy=1 / psy_rd=1.00:0.10 / mixed_ref=1 / me_range=32 / chroma_me=1 / trellis=2 / 8x8dct=1 / cqm=0 / deadzone=21,11 / fast_pskip=0 / chroma_qp_offset=-3 / threads=12 / lookahead_threads=3 / sliced_threads=0 / nr=0 / decimate=1 / interlaced=0 / bluray_compat=0 / constrained_intra=0 / bframes=16 / b_pyramid=2 / b_adapt=2 / b_bias=0 / direct=3 / weightb=1 / open_gop=0 / weightp=2 / keyint=600 / keyint_min=59 / scenecut=40 / intra_refresh=0 / rc_lookahead=40 / rc=2pass / mbtree=0 / bitrate=4000 / ratetol=1.0 / qcomp=0.60 / qpmin=0 / qpmax=69 / qpstep=4 / cplxblur=20.0 / qblur=0.5 / vbv_maxrate=14000 / vbv_bufsize=14000 / nal_hrd=none / filler=0 / ip_ratio=1.40 / pb_ratio=1.30 / aq=1:1.00
Language : English
Default : Yes
Forced : No
Audio
ID : 2
Format : AC-3
Format/Info : Audio Coding 3
Mode extension : CM (complete main)
Format settings, Endianness : Big
Codec ID : A_AC3
Duration : 1h 56mn
Bit rate mode : Constant
Bit rate : 640 Kbps
Channel(s) : 6 channels
Channel positions : Front: L C R, Side: L R, LFE
Sampling rate : 48.0 KHz
Compression mode : Lossy
Stream size : 535 MiB (14%)
Title : Дубляж
Language : Russian
Default : Yes
Forced : No
Text #1
ID : 3
Format : UTF-8
Codec ID : S_TEXT/UTF8
Codec ID/Info : UTF-8 Plain Text
Title : Полные
Language : Russian
Default : No
Forced : No
Text #2
ID : 4
Format : UTF-8
Codec ID : S_TEXT/UTF8
Codec ID/Info : UTF-8 Plain Text
Title : Полные
Language : English
Default : No
Forced : No
Menu
00:00:00.000 : en:Chapter 01
00:05:02.093 : en:Chapter 03
00:06:10.536 : en:Chapter 05
00:08:54.075 : en:Chapter 07
00:11:49.375 : en:Chapter 09
00:15:23.088 : en:Chapter 11
00:19:25.914 : en:Chapter 13
00:24:18.915 : en:Chapter 15
00:28:19.656 : en:Chapter 17
00:31:28.720 : en:Chapter 19
00:33:09.112 : en:Chapter 21
00:36:14.589 : en:Chapter 23
00:40:48.070 : en:Chapter 25
00:44:17.821 : en:Chapter 27
00:46:59.817 : en:Chapter 29
00:51:13.779 : en:Chapter 31
00:54:37.274 : en:Chapter 33
00:58:58.701 : en:Chapter 35
01:03:27.845 : en:Chapter 37
01:09:01.971 : en:Chapter 39
01:12:26.717 : en:Chapter 41
01:14:07.067 : en:Chapter 43
01:17:33.649 : en:Chapter 45
01:20:25.904 : en:Chapter 47
01:24:25.685 : en:Chapter 49
01:28:42.734 : en:Chapter 51
01:34:54.647 : en:Chapter 53
01:35:49.994 : en:Chapter 55
01:38:13.178 : en:Chapter 57
01:44:26.301 : en:Chapter 59
01:48:19.534 : en:Chapter 61
01:53:25.507 : en:Chapter 63
01:56:58.011 : en:Chapter 64

Казино «Рояль» (1967) MI

General
Unique ID : 179077355433486783957850534398622569883 (0x86B90B4B63B7DB53AF23AA80F55A159B)
Format : Matroska
Format version : Version 4 / Version 2
File size : 3.93 GiB
Duration : 2h 11mn
Overall bit rate : 4 295 Kbps
Movie name : Tiberiumsun69
Encoded date : UTC 2015-09-18 11:24:18
Writing application : mkvmerge v8.3.0 ('Over the Horizon') 64bit
Writing library : libebml v1.3.1 + libmatroska v1.4.2
Attachements : Cover.png
Video
ID : 1
Format : AVC
Format/Info : Advanced Video Codec
Format profile : High@L4.1
Format settings, CABAC : Yes
Format settings, ReFrames : 4 frames
Codec ID : V_MPEG4/ISO/AVC
Duration : 2h 11mn
Bit rate : 3 650 Kbps
Width : 1 024 pixels
Height : 440 pixels
Display aspect ratio : 2.35:1
Frame rate mode : Constant
Frame rate : 59.880 fps
Original frame rate : 59.940 fps
Color space : YUV
Chroma subsampling : 4:2:0
Bit depth : 8 bits
Scan type : Progressive
Bits/(Pixel*Frame) : 0.135
Stream size : 3.27 GiB (83%)
Title : Tiberiumsun69
Writing library : x264 core 146 r2538 121396c
Encoding settings : cabac=1 / ref=3 / deblock=1:0:0 / analyse=0x3:0x113 / me=umh / subme=9 / psy=1 / psy_rd=1.00:0.10 / mixed_ref=1 / me_range=32 / chroma_me=1 / trellis=2 / 8x8dct=1 / cqm=0 / deadzone=21,11 / fast_pskip=0 / chroma_qp_offset=-3 / threads=12 / lookahead_threads=3 / sliced_threads=0 / nr=0 / decimate=1 / interlaced=0 / bluray_compat=0 / constrained_intra=0 / bframes=16 / b_pyramid=2 / b_adapt=2 / b_bias=0 / direct=3 / weightb=1 / open_gop=0 / weightp=2 / keyint=600 / keyint_min=59 / scenecut=40 / intra_refresh=0 / rc_lookahead=40 / rc=2pass / mbtree=0 / bitrate=3650 / ratetol=1.0 / qcomp=0.60 / qpmin=0 / qpmax=69 / qpstep=4 / cplxblur=20.0 / qblur=0.5 / vbv_maxrate=14000 / vbv_bufsize=14000 / nal_hrd=none / filler=0 / ip_ratio=1.40 / pb_ratio=1.30 / aq=1:1.00
Language : English
Default : Yes
Forced : No
Audio
ID : 2
Format : AC-3
Format/Info : Audio Coding 3
Mode extension : CM (complete main)
Format settings, Endianness : Big
Codec ID : A_AC3
Duration : 2h 11mn
Bit rate mode : Constant
Bit rate : 640 Kbps
Channel(s) : 6 channels
Channel positions : Front: L C R, Side: L R, LFE
Sampling rate : 48.0 KHz
Compression mode : Lossy
Stream size : 600 MiB (15%)
Title : Многоголосый, закадровый DVDMagic
Language : Russian
Default : Yes
Forced : No
Text #1
ID : 3
Format : UTF-8
Codec ID : S_TEXT/UTF8
Codec ID/Info : UTF-8 Plain Text
Title : Полные
Language : Russian
Default : No
Forced : No
Text #2
ID : 4
Format : UTF-8
Codec ID : S_TEXT/UTF8
Codec ID/Info : UTF-8 Plain Text
Title : Полные
Language : English
Default : No
Forced : No
Menu
00:00:00.000 : en:Chapter 1
00:05:42.383 : en:Chapter 2
00:12:03.848 : en:Chapter 3
00:15:46.487 : en:Chapter 4
00:19:23.954 : en:Chapter 5
00:21:47.848 : en:Chapter 6
00:28:04.391 : en:Chapter 7
00:37:02.511 : en:Chapter 8
00:40:24.380 : en:Chapter 9
00:44:19.031 : en:Chapter 10
00:52:11.169 : en:Chapter 11
00:56:34.641 : en:Chapter 12
01:01:20.885 : en:Chapter 13
01:08:19.053 : en:Chapter 14
01:16:42.681 : en:Chapter 15
01:22:20.936 : en:Chapter 16
01:28:55.371 : en:Chapter 17
01:41:04.475 : en:Chapter 18
01:46:17.788 : en:Chapter 19
01:50:22.282 : en:Chapter 20
01:53:15.872 : en:Chapter 21
01:58:59.090 : en:Chapter 22
02:03:33.030 : en:Chapter 23
02:08:41.213 : en:Chapter 24

На секретной службе ее Величества MI

General
Unique ID : 178298814310235032573289552237399242227 (0x86231A40E7DAC0359DF9D49287EDF5F3)
Format : Matroska
Format version : Version 4 / Version 2
File size : 3.95 GiB
Duration : 2h 22mn
Overall bit rate : 3 974 Kbps
Movie name : Tiberiumsun69
Encoded date : UTC 2015-09-15 16:46:34
Writing application : mkvmerge v8.3.0 ('Over the Horizon') 64bit
Writing library : libebml v1.3.1 + libmatroska v1.4.2
Attachements : Cover.png
Video
ID : 1
Format : AVC
Format/Info : Advanced Video Codec
Format profile : High@L4.1
Format settings, CABAC : Yes
Format settings, ReFrames : 4 frames
Codec ID : V_MPEG4/ISO/AVC
Duration : 2h 22mn
Bit rate : 3 330 Kbps
Width : 1 024 pixels
Height : 432 pixels
Display aspect ratio : 2.40:1
Frame rate mode : Constant
Frame rate : 59.880 fps
Original frame rate : 59.940 fps
Color space : YUV
Chroma subsampling : 4:2:0
Bit depth : 8 bits
Scan type : Progressive
Bits/(Pixel*Frame) : 0.126
Stream size : 3.24 GiB (82%)
Title : Tiberiumsun69
Writing library : x264 core 146 r2538 121396c
Encoding settings : cabac=1 / ref=3 / deblock=1:0:0 / analyse=0x3:0x113 / me=umh / subme=11 / psy=1 / psy_rd=1.00:0.10 / mixed_ref=1 / me_range=32 / chroma_me=1 / trellis=2 / 8x8dct=1 / cqm=0 / deadzone=21,11 / fast_pskip=0 / chroma_qp_offset=-3 / threads=12 / lookahead_threads=3 / sliced_threads=0 / nr=0 / decimate=1 / interlaced=0 / bluray_compat=0 / constrained_intra=0 / bframes=16 / b_pyramid=2 / b_adapt=2 / b_bias=0 / direct=3 / weightb=1 / open_gop=0 / weightp=2 / keyint=600 / keyint_min=59 / scenecut=40 / intra_refresh=0 / rc_lookahead=40 / rc=2pass / mbtree=0 / bitrate=3330 / ratetol=1.0 / qcomp=0.60 / qpmin=0 / qpmax=69 / qpstep=4 / cplxblur=20.0 / qblur=0.5 / vbv_maxrate=14000 / vbv_bufsize=14000 / nal_hrd=none / filler=0 / ip_ratio=1.40 / pb_ratio=1.30 / aq=1:1.00
Language : English
Default : Yes
Forced : No
Audio
ID : 2
Format : AC-3
Format/Info : Audio Coding 3
Mode extension : CM (complete main)
Format settings, Endianness : Big
Codec ID : A_AC3
Duration : 2h 22mn
Bit rate mode : Constant
Bit rate : 640 Kbps
Channel(s) : 6 channels
Channel positions : Front: L C R, Side: L R, LFE
Sampling rate : 48.0 KHz
Compression mode : Lossy
Stream size : 651 MiB (16%)
Title : Дубляж
Language : Russian
Default : Yes
Forced : No
Text #1
ID : 3
Format : UTF-8
Codec ID : S_TEXT/UTF8
Codec ID/Info : UTF-8 Plain Text
Title : Полные
Language : Russian
Default : No
Forced : No
Text #2
ID : 4
Format : UTF-8
Codec ID : S_TEXT/UTF8
Codec ID/Info : UTF-8 Plain Text
Title : Полные
Language : English
Default : No
Forced : No
Menu
00:00:00.000 : en:Chapter 01
00:01:28.254 : en:Chapter 03
00:06:56.833 : en:Chapter 05
00:09:28.442 : en:Chapter 07
00:14:07.304 : en:Chapter 09
00:15:43.442 : en:Chapter 11
00:19:43.932 : en:Chapter 13
00:26:47.105 : en:Chapter 15
00:30:36.251 : en:Chapter 17
00:34:59.013 : en:Chapter 19
00:37:13.314 : en:Chapter 21
00:43:52.129 : en:Chapter 23
00:47:43.026 : en:Chapter 25
00:54:49.869 : en:Chapter 27
00:57:09.217 : en:Chapter 29
01:02:37.253 : en:Chapter 31
01:06:04.669 : en:Chapter 33
01:13:21.063 : en:Chapter 35
01:18:08.058 : en:Chapter 37
01:22:19.184 : en:Chapter 39
01:29:14.932 : en:Chapter 41
01:31:36.282 : en:Chapter 43
01:38:32.197 : en:Chapter 45
01:44:17.668 : en:Chapter 47
01:48:26.625 : en:Chapter 49
01:53:53.034 : en:Chapter 51
01:58:39.320 : en:Chapter 53
02:00:46.906 : en:Chapter 55
02:05:41.867 : en:Chapter 57
02:09:09.908 : en:Chapter 59
02:11:52.404 : en:Chapter 61
02:15:41.758 : en:Chapter 63
02:22:18.279 : en:Chapter 64

Бриллианты навсегда MI

General
Unique ID : 226619712549957076246922681879175057254 (0xAA7D5E7954508C308253856927834F66)
Format : Matroska
Format version : Version 4 / Version 2
File size : 3.90 GiB
Duration : 2h 0mn
Overall bit rate : 4 645 Kbps
Movie name : Tiberiumsun69
Encoded date : UTC 2015-09-15 17:05:02
Writing application : mkvmerge v8.3.0 ('Over the Horizon') 64bit
Writing library : libebml v1.3.1 + libmatroska v1.4.2
Attachements : Cover.png
Video
ID : 1
Format : AVC
Format/Info : Advanced Video Codec
Format profile : High@L4.1
Format settings, CABAC : Yes
Format settings, ReFrames : 4 frames
Codec ID : V_MPEG4/ISO/AVC
Duration : 2h 0mn
Bit rate : 4 000 Kbps
Width : 1 024 pixels
Height : 432 pixels
Display aspect ratio : 2.40:1
Frame rate mode : Constant
Frame rate : 59.880 fps
Original frame rate : 59.940 fps
Color space : YUV
Chroma subsampling : 4:2:0
Bit depth : 8 bits
Scan type : Progressive
Bits/(Pixel*Frame) : 0.151
Stream size : 3.28 GiB (84%)
Title : Tiberiumsun69
Writing library : x264 core 146 r2538 121396c
Encoding settings : cabac=1 / ref=3 / deblock=1:0:0 / analyse=0x3:0x113 / me=umh / subme=9 / psy=1 / psy_rd=1.00:0.10 / mixed_ref=1 / me_range=32 / chroma_me=1 / trellis=2 / 8x8dct=1 / cqm=0 / deadzone=21,11 / fast_pskip=0 / chroma_qp_offset=-3 / threads=12 / lookahead_threads=3 / sliced_threads=0 / nr=0 / decimate=1 / interlaced=0 / bluray_compat=0 / constrained_intra=0 / bframes=16 / b_pyramid=2 / b_adapt=2 / b_bias=0 / direct=3 / weightb=1 / open_gop=0 / weightp=2 / keyint=600 / keyint_min=59 / scenecut=40 / intra_refresh=0 / rc_lookahead=40 / rc=2pass / mbtree=0 / bitrate=4000 / ratetol=1.0 / qcomp=0.60 / qpmin=0 / qpmax=69 / qpstep=4 / cplxblur=20.0 / qblur=0.5 / vbv_maxrate=14000 / vbv_bufsize=14000 / nal_hrd=none / filler=0 / ip_ratio=1.40 / pb_ratio=1.30 / aq=1:1.00
Language : English
Default : Yes
Forced : No
Audio
ID : 2
Format : AC-3
Format/Info : Audio Coding 3
Mode extension : CM (complete main)
Format settings, Endianness : Big
Codec ID : A_AC3
Duration : 2h 0mn
Bit rate mode : Constant
Bit rate : 640 Kbps
Channel(s) : 6 channels
Channel positions : Front: L C R, Side: L R, LFE
Sampling rate : 48.0 KHz
Compression mode : Lossy
Stream size : 550 MiB (14%)
Title : Дубляж
Language : Russian
Default : Yes
Forced : No
Text #1
ID : 3
Format : UTF-8
Codec ID : S_TEXT/UTF8
Codec ID/Info : UTF-8 Plain Text
Title : Полные
Language : Russian
Default : No
Forced : No
Text #2
ID : 4
Format : UTF-8
Codec ID : S_TEXT/UTF8
Codec ID/Info : UTF-8 Plain Text
Title : Полные
Language : English
Default : No
Forced : No
Menu
00:00:00.000 : en:Chapter 01
00:04:56.170 : en:Chapter 03
00:07:45.756 : en:Chapter 05
00:10:31.464 : en:Chapter 07
00:14:43.299 : en:Chapter 09
00:17:15.826 : en:Chapter 11
00:21:31.456 : en:Chapter 13
00:25:37.536 : en:Chapter 15
00:29:11.458 : en:Chapter 17
00:34:10.882 : en:Chapter 19
00:36:51.584 : en:Chapter 21
00:39:36.165 : en:Chapter 23
00:43:57.593 : en:Chapter 25
00:49:59.663 : en:Chapter 27
00:51:45.894 : en:Chapter 29
00:56:34.057 : en:Chapter 31
00:59:17.011 : en:Chapter 33
01:03:33.643 : en:Chapter 35
01:08:01.285 : en:Chapter 37
01:12:56.163 : en:Chapter 39
01:18:34.960 : en:Chapter 41
01:20:29.574 : en:Chapter 43
01:23:11.736 : en:Chapter 45
01:30:21.958 : en:Chapter 47
01:32:01.641 : en:Chapter 49
01:33:06.497 : en:Chapter 51
01:36:06.010 : en:Chapter 53
01:37:59.373 : en:Chapter 55
01:41:39.885 : en:Chapter 57
01:47:22.811 : en:Chapter 59
01:54:13.972 : en:Chapter 61
01:58:34.357 : en:Chapter 63
02:00:08.075 : en:Chapter 64

Живи и дай умереть MI

General
Unique ID : 185787213915777270638329658739144971258 (0x8BC550DBF82D07B59D90E67084CED3FA)
Format : Matroska
Format version : Version 4 / Version 2
File size : 3.95 GiB
Duration : 2h 1mn
Overall bit rate : 4 645 Kbps
Movie name : Tiberiumsun69
Encoded date : UTC 2015-09-15 17:13:23
Writing application : mkvmerge v8.3.0 ('Over the Horizon') 64bit
Writing library : libebml v1.3.1 + libmatroska v1.4.2
Attachements : Cover.png
Video
ID : 1
Format : AVC
Format/Info : Advanced Video Codec
Format profile : High@L4.1
Format settings, CABAC : Yes
Format settings, ReFrames : 4 frames
Codec ID : V_MPEG4/ISO/AVC
Duration : 2h 1mn
Bit rate : 4 000 Kbps
Width : 1 024 pixels
Height : 552 pixels
Display aspect ratio : 1.85:1
Frame rate mode : Constant
Frame rate : 59.880 fps
Original frame rate : 59.940 fps
Color space : YUV
Chroma subsampling : 4:2:0
Bit depth : 8 bits
Scan type : Progressive
Bits/(Pixel*Frame) : 0.118
Stream size : 3.32 GiB (84%)
Title : Tiberiumsun69
Writing library : x264 core 146 r2538 121396c
Encoding settings : cabac=1 / ref=3 / deblock=1:0:0 / analyse=0x3:0x113 / me=umh / subme=11 / psy=1 / psy_rd=1.00:0.10 / mixed_ref=1 / me_range=32 / chroma_me=1 / trellis=2 / 8x8dct=1 / cqm=0 / deadzone=21,11 / fast_pskip=0 / chroma_qp_offset=-3 / threads=12 / lookahead_threads=3 / sliced_threads=0 / nr=0 / decimate=1 / interlaced=0 / bluray_compat=0 / constrained_intra=0 / bframes=16 / b_pyramid=2 / b_adapt=2 / b_bias=0 / direct=3 / weightb=1 / open_gop=0 / weightp=2 / keyint=600 / keyint_min=59 / scenecut=40 / intra_refresh=0 / rc_lookahead=40 / rc=2pass / mbtree=0 / bitrate=4000 / ratetol=1.0 / qcomp=0.60 / qpmin=0 / qpmax=69 / qpstep=4 / cplxblur=20.0 / qblur=0.5 / vbv_maxrate=14000 / vbv_bufsize=14000 / nal_hrd=none / filler=0 / ip_ratio=1.40 / pb_ratio=1.30 / aq=1:1.00
Language : English
Default : Yes
Forced : No
Audio
ID : 2
Format : AC-3
Format/Info : Audio Coding 3
Mode extension : CM (complete main)
Format settings, Endianness : Big
Codec ID : A_AC3
Duration : 2h 1mn
Bit rate mode : Constant
Bit rate : 640 Kbps
Channel(s) : 6 channels
Channel positions : Front: L C R, Side: L R, LFE
Sampling rate : 48.0 KHz
Compression mode : Lossy
Stream size : 557 MiB (14%)
Title : Дубляж
Language : Russian
Default : Yes
Forced : No
Text #1
ID : 3
Format : UTF-8
Codec ID : S_TEXT/UTF8
Codec ID/Info : UTF-8 Plain Text
Title : Форсированные
Language : Russian
Default : Yes
Forced : No
Text #2
ID : 4
Format : UTF-8
Codec ID : S_TEXT/UTF8
Codec ID/Info : UTF-8 Plain Text
Title : Полные
Language : Russian
Default : No
Forced : No
Text #3
ID : 5
Format : UTF-8
Codec ID : S_TEXT/UTF8
Codec ID/Info : UTF-8 Plain Text
Title : Полные
Language : English
Default : No
Forced : No
Menu
00:00:00.000 : en:Chapter 01
00:04:56.129 : en:Chapter 02
00:07:37.874 : en:Chapter 03
00:12:31.167 : en:Chapter 04
00:17:57.409 : en:Chapter 05
00:22:36.396 : en:Chapter 06
00:26:31.381 : en:Chapter 07
00:28:49.853 : en:Chapter 08
00:30:33.581 : en:Chapter 09
00:34:46.125 : en:Chapter 10
00:38:19.296 : en:Chapter 11
00:41:54.887 : en:Chapter 12
00:46:54.061 : en:Chapter 13
00:51:06.938 : en:Chapter 14
00:54:51.496 : en:Chapter 15
00:57:18.726 : en:Chapter 16
01:03:02.278 : en:Chapter 17
01:04:58.811 : en:Chapter 18
01:07:06.397 : en:Chapter 19
01:10:47.701 : en:Chapter 20
01:14:53.614 : en:Chapter 21
01:19:29.222 : en:Chapter 22
01:26:17.714 : en:Chapter 23
01:31:55.510 : en:Chapter 24
01:35:48.826 : en:Chapter 25
01:40:27.521 : en:Chapter 26
01:44:50.284 : en:Chapter 27
01:47:40.745 : en:Chapter 28
01:49:41.032 : en:Chapter 29
01:55:33.927 : en:Chapter 30
01:56:30.817 : en:Chapter 31
02:00:05.990 : en:Chapter 32
02:01:37.999 : en:Chapter 33

Человек с золотым пистолетом MI

General
Unique ID : 194970926961589807505437004136601494903 (0x92AE08DEF48779D2A480B6CE3B262577)
Format : Matroska
Format version : Version 4 / Version 2
File size : 3.94 GiB
Duration : 2h 5mn
Overall bit rate : 4 505 Kbps
Movie name : Tiberiumsun69
Encoded date : UTC 2015-09-15 17:23:04
Writing application : mkvmerge v8.3.0 ('Over the Horizon') 64bit
Writing library : libebml v1.3.1 + libmatroska v1.4.2
Attachements : Cover.png
Video
ID : 1
Format : AVC
Format/Info : Advanced Video Codec
Format profile : High@L4.1
Format settings, CABAC : Yes
Format settings, ReFrames : 4 frames
Codec ID : V_MPEG4/ISO/AVC
Duration : 2h 5mn
Bit rate : 3 860 Kbps
Width : 1 024 pixels
Height : 552 pixels
Display aspect ratio : 1.85:1
Frame rate mode : Constant
Frame rate : 59.880 fps
Original frame rate : 59.940 fps
Color space : YUV
Chroma subsampling : 4:2:0
Bit depth : 8 bits
Scan type : Progressive
Bits/(Pixel*Frame) : 0.114
Stream size : 3.30 GiB (84%)
Title : Tiberiumsun69
Writing library : x264 core 146 r2538 121396c
Encoding settings : cabac=1 / ref=3 / deblock=1:0:0 / analyse=0x3:0x113 / me=umh / subme=11 / psy=1 / psy_rd=1.00:0.10 / mixed_ref=1 / me_range=32 / chroma_me=1 / trellis=2 / 8x8dct=1 / cqm=0 / deadzone=21,11 / fast_pskip=0 / chroma_qp_offset=-3 / threads=12 / lookahead_threads=3 / sliced_threads=0 / nr=0 / decimate=1 / interlaced=0 / bluray_compat=0 / constrained_intra=0 / bframes=16 / b_pyramid=2 / b_adapt=2 / b_bias=0 / direct=3 / weightb=1 / open_gop=0 / weightp=2 / keyint=600 / keyint_min=59 / scenecut=40 / intra_refresh=0 / rc_lookahead=40 / rc=2pass / mbtree=0 / bitrate=3860 / ratetol=1.0 / qcomp=0.60 / qpmin=0 / qpmax=69 / qpstep=4 / cplxblur=20.0 / qblur=0.5 / vbv_maxrate=14000 / vbv_bufsize=14000 / nal_hrd=none / filler=0 / ip_ratio=1.40 / pb_ratio=1.30 / aq=1:1.00
Language : English
Default : Yes
Forced : No
Audio
ID : 2
Format : AC-3
Format/Info : Audio Coding 3
Mode extension : CM (complete main)
Format settings, Endianness : Big
Codec ID : A_AC3
Duration : 2h 5mn
Bit rate mode : Constant
Bit rate : 640 Kbps
Channel(s) : 6 channels
Channel positions : Front: L C R, Side: L R, LFE
Sampling rate : 48.0 KHz
Compression mode : Lossy
Stream size : 573 MiB (14%)
Title : Дубляж
Language : Russian
Default : Yes
Forced : No
Text #1
ID : 3
Format : UTF-8
Codec ID : S_TEXT/UTF8
Codec ID/Info : UTF-8 Plain Text
Title : Полные
Language : Russian
Default : No
Forced : No
Text #2
ID : 4
Format : UTF-8
Codec ID : S_TEXT/UTF8
Codec ID/Info : UTF-8 Plain Text
Title : Полные
Language : English
Default : No
Forced : No
Menu
00:00:00.000 : en:Chapter 01
00:08:18.080 : en:Chapter 02
00:10:49.815 : en:Chapter 03
00:14:58.772 : en:Chapter 04
00:19:58.405 : en:Chapter 05
00:21:31.873 : en:Chapter 06
00:24:56.745 : en:Chapter 07
00:28:03.139 : en:Chapter 08
00:33:17.996 : en:Chapter 09
00:36:42.575 : en:Chapter 10
00:39:41.128 : en:Chapter 11
00:44:04.266 : en:Chapter 12
00:48:27.988 : en:Chapter 13
00:51:51.608 : en:Chapter 14
00:56:46.277 : en:Chapter 15
00:58:43.311 : en:Chapter 16
01:03:23.800 : en:Chapter 17
01:05:25.254 : en:Chapter 18
01:07:53.486 : en:Chapter 19
01:14:53.197 : en:Chapter 20
01:19:22.799 : en:Chapter 21
01:27:17.232 : en:Chapter 22
01:31:06.669 : en:Chapter 23
01:33:48.164 : en:Chapter 24
01:36:57.394 : en:Chapter 25
01:42:02.449 : en:Chapter 26
01:45:31.241 : en:Chapter 27
01:48:30.212 : en:Chapter 28
01:52:38.001 : en:Chapter 29
01:58:54.627 : en:Chapter 30
02:01:59.729 : en:Chapter 31
02:03:41.414 : en:Chapter 32
02:05:12.755 : en:Chapter 33

Шпион, который меня любил MI

General
Unique ID : 235517490521001872848872846370582517142 (0xB12F04CC48D237DCA74D20615B4F5596)
Format : Matroska
Format version : Version 4 / Version 2
File size : 3.95 GiB
Duration : 2h 5mn
Overall bit rate : 4 496 Kbps
Movie name : Tiberiumsun69
Encoded date : UTC 2015-09-15 17:33:28
Writing application : mkvmerge v8.3.0 ('Over the Horizon') 64bit
Writing library : libebml v1.3.1 + libmatroska v1.4.2
Attachements : Cover.png
Video
ID : 1
Format : AVC
Format/Info : Advanced Video Codec
Format profile : High@L4.1
Format settings, CABAC : Yes
Format settings, ReFrames : 4 frames
Codec ID : V_MPEG4/ISO/AVC
Duration : 2h 5mn
Bit rate : 3 850 Kbps
Width : 1 024 pixels
Height : 432 pixels
Display aspect ratio : 2.40:1
Frame rate mode : Constant
Frame rate : 59.880 fps
Original frame rate : 59.940 fps
Color space : YUV
Chroma subsampling : 4:2:0
Bit depth : 8 bits
Scan type : Progressive
Bits/(Pixel*Frame) : 0.145
Stream size : 3.31 GiB (84%)
Title : Tiberiumsun69
Writing library : x264 core 146 r2538 121396c
Encoding settings : cabac=1 / ref=3 / deblock=1:0:0 / analyse=0x3:0x113 / me=umh / subme=9 / psy=1 / psy_rd=1.00:0.10 / mixed_ref=1 / me_range=32 / chroma_me=1 / trellis=2 / 8x8dct=1 / cqm=0 / deadzone=21,11 / fast_pskip=0 / chroma_qp_offset=-3 / threads=12 / lookahead_threads=3 / sliced_threads=0 / nr=0 / decimate=1 / interlaced=0 / bluray_compat=0 / constrained_intra=0 / bframes=16 / b_pyramid=2 / b_adapt=2 / b_bias=0 / direct=3 / weightb=1 / open_gop=0 / weightp=2 / keyint=600 / keyint_min=59 / scenecut=40 / intra_refresh=0 / rc_lookahead=40 / rc=2pass / mbtree=0 / bitrate=3850 / ratetol=1.0 / qcomp=0.60 / qpmin=0 / qpmax=69 / qpstep=4 / cplxblur=20.0 / qblur=0.5 / vbv_maxrate=14000 / vbv_bufsize=14000 / nal_hrd=none / filler=0 / ip_ratio=1.40 / pb_ratio=1.30 / aq=1:1.00
Language : English
Default : Yes
Forced : No
Audio
ID : 2
Format : AC-3
Format/Info : Audio Coding 3
Mode extension : CM (complete main)
Format settings, Endianness : Big
Codec ID : A_AC3
Duration : 2h 5mn
Bit rate mode : Constant
Bit rate : 640 Kbps
Channel(s) : 6 channels
Channel positions : Front: L C R, Side: L R, LFE
Sampling rate : 48.0 KHz
Compression mode : Lossy
Stream size : 575 MiB (14%)
Title : Дубляж
Language : Russian
Default : Yes
Forced : No
Text #1
ID : 3
Format : UTF-8
Codec ID : S_TEXT/UTF8
Codec ID/Info : UTF-8 Plain Text
Title : Полные
Language : Russian
Default : No
Forced : No
Text #2
ID : 4
Format : UTF-8
Codec ID : S_TEXT/UTF8
Codec ID/Info : UTF-8 Plain Text
Title : Полные
Language : English
Default : No
Forced : No
Menu
00:00:00.000 : en:Chapter 01
00:00:49.507 : en:Chapter 03
00:05:59.609 : en:Chapter 05
00:08:05.985 : en:Chapter 07
00:12:37.047 : en:Chapter 09
00:15:15.164 : en:Chapter 11
00:18:01.288 : en:Chapter 13
00:20:35.234 : en:Chapter 15
00:23:16.770 : en:Chapter 17
00:27:28.813 : en:Chapter 19
00:32:58.434 : en:Chapter 21
00:40:01.023 : en:Chapter 23
00:46:12.436 : en:Chapter 25
00:48:31.742 : en:Chapter 27
00:51:06.313 : en:Chapter 29
00:53:24.034 : en:Chapter 31
00:57:37.120 : en:Chapter 33
01:01:14.712 : en:Chapter 35
01:06:03.626 : en:Chapter 37
01:10:39.902 : en:Chapter 39
01:17:02.451 : en:Chapter 41
01:22:40.705 : en:Chapter 43
01:25:27.914 : en:Chapter 45
01:31:05.960 : en:Chapter 47
01:34:50.267 : en:Chapter 49
01:36:16.187 : en:Chapter 51
01:40:37.573 : en:Chapter 53
01:48:56.154 : en:Chapter 55
01:54:11.845 : en:Chapter 57
01:57:53.524 : en:Chapter 59
01:59:45.553 : en:Chapter 61
02:03:56.679 : en:Chapter 63
02:05:40.282 : en:Chapter 64

Лунный гонщик MI

General
Unique ID : 199104737806416525494041623329584927847 (0x95CA2D7B323996DBB64520737F5F5467)
Format : Matroska
Format version : Version 4 / Version 2
File size : 3.95 GiB
Duration : 2h 6mn
Overall bit rate : 4 470 Kbps
Movie name : Tiberiumsun69
Encoded date : UTC 2015-09-15 17:44:05
Writing application : mkvmerge v8.3.0 ('Over the Horizon') 64bit
Writing library : libebml v1.3.1 + libmatroska v1.4.2
Attachements : Cover.png
Video
ID : 1
Format : AVC
Format/Info : Advanced Video Codec
Format profile : High@L4.1
Format settings, CABAC : Yes
Format settings, ReFrames : 4 frames
Codec ID : V_MPEG4/ISO/AVC
Duration : 2h 6mn
Bit rate : 3 825 Kbps
Width : 1 024 pixels
Height : 432 pixels
Display aspect ratio : 2.40:1
Frame rate mode : Constant
Frame rate : 59.880 fps
Original frame rate : 59.940 fps
Color space : YUV
Chroma subsampling : 4:2:0
Bit depth : 8 bits
Scan type : Progressive
Bits/(Pixel*Frame) : 0.144
Stream size : 3.31 GiB (84%)
Title : Tiberiumsun69
Writing library : x264 core 146 r2538 121396c
Encoding settings : cabac=1 / ref=3 / deblock=1:0:0 / analyse=0x3:0x113 / me=umh / subme=9 / psy=1 / psy_rd=1.00:0.10 / mixed_ref=1 / me_range=32 / chroma_me=1 / trellis=2 / 8x8dct=1 / cqm=0 / deadzone=21,11 / fast_pskip=0 / chroma_qp_offset=-3 / threads=12 / lookahead_threads=3 / sliced_threads=0 / nr=0 / decimate=1 / interlaced=0 / bluray_compat=0 / constrained_intra=0 / bframes=16 / b_pyramid=2 / b_adapt=2 / b_bias=0 / direct=3 / weightb=1 / open_gop=0 / weightp=2 / keyint=600 / keyint_min=59 / scenecut=40 / intra_refresh=0 / rc_lookahead=40 / rc=2pass / mbtree=0 / bitrate=3825 / ratetol=1.0 / qcomp=0.60 / qpmin=0 / qpmax=69 / qpstep=4 / cplxblur=20.0 / qblur=0.5 / vbv_maxrate=14000 / vbv_bufsize=14000 / nal_hrd=none / filler=0 / ip_ratio=1.40 / pb_ratio=1.30 / aq=1:1.00
Language : English
Default : Yes
Forced : No
Audio
ID : 2
Format : AC-3
Format/Info : Audio Coding 3
Mode extension : CM (complete main)
Format settings, Endianness : Big
Codec ID : A_AC3
Duration : 2h 6mn
Bit rate mode : Constant
Bit rate : 640 Kbps
Channel(s) : 6 channels
Channel positions : Front: L C R, Side: L R, LFE
Sampling rate : 48.0 KHz
Compression mode : Lossy
Stream size : 579 MiB (14%)
Title : Дубляж
Language : Russian
Default : Yes
Forced : No
Text #1
ID : 3
Format : UTF-8
Codec ID : S_TEXT/UTF8
Codec ID/Info : UTF-8 Plain Text
Title : Форсированные
Language : Russian
Default : Yes
Forced : No
Text #2
ID : 4
Format : UTF-8
Codec ID : S_TEXT/UTF8
Codec ID/Info : UTF-8 Plain Text
Title : Полные
Language : Russian
Default : No
Forced : No
Text #3
ID : 5
Format : UTF-8
Codec ID : S_TEXT/UTF8
Codec ID/Info : UTF-8 Plain Text
Title : Полные
Language : English
Default : No
Forced : No
Menu
00:00:00.000 : en:Opening Sequence
00:02:31.401 : en:Sharp 'chuting
00:05:50.892 : en:Main Titles
00:11:25.351 : en:The Drax Estate
00:18:58.554 : en:Centrifugal Bond
00:24:04.276 : en:Dufour-Play
00:26:06.231 : en:Safecracking
00:29:14.335 : en:A Pheasant Pastime
00:32:00.877 : en:Dogged Determination
00:33:42.562 : en:Trailing Dr. Goodhead
00:37:54.313 : en:Going, Going, Gondola
00:41:31.322 : en:Toxic Encounters
00:45:41.196 : en:By Sword & Piano Chord
00:49:07.152 : en:Disarming Dr. Goodhead
00:56:00.273 : en:Revelry in Rio
00:59:30.483 : en:A Toothy Clown
01:05:22.251 : en:The Tram Ram
01:10:33.229 : en:Kidnapped
01:13:00.834 : en:Magnificent...Bond?
01:16:15.070 : en:What's Mines Is Yours
01:18:38.839 : en:Not Hanging Around
01:20:36.873 : en:Of Beauties & Boas
01:23:30.046 : en:Launching the Fleet
01:27:45.635 : en:Some Like It Hot
01:31:30.568 : en:Cockpit for Two
01:34:12.271 : en:Mett the Space Race
01:38:38.621 : en:In the City in Space
01:43:14.563 : en:Mutiny
01:48:47.979 : en:Battle in Space
01:53:44.692 : en:Launching Drax
01:59:23.156 : en:Globe Tracking
02:03:46.961 : en:End Credits

Только для твоих глаз MI

General
Unique ID : 251543730609559091580386735017139875270 (0xBD3D8F708050DDEC9372B2774F43ADC6)
Format : Matroska
Format version : Version 4 / Version 2
File size : 3.95 GiB
Duration : 2h 7mn
Overall bit rate : 4 419 Kbps
Movie name : Tiberiumsun69
Encoded date : UTC 2015-09-15 17:50:59
Writing application : mkvmerge v8.3.0 ('Over the Horizon') 64bit
Writing library : libebml v1.3.1 + libmatroska v1.4.2
Attachements : Cover.png
Video
ID : 1
Format : AVC
Format/Info : Advanced Video Codec
Format profile : High@L4.1
Format settings, CABAC : Yes
Format settings, ReFrames : 4 frames
Codec ID : V_MPEG4/ISO/AVC
Duration : 2h 7mn
Bit rate : 3 775 Kbps
Width : 1 024 pixels
Height : 432 pixels
Display aspect ratio : 2.40:1
Frame rate mode : Constant
Frame rate : 59.880 fps
Original frame rate : 59.940 fps
Color space : YUV
Chroma subsampling : 4:2:0
Bit depth : 8 bits
Scan type : Progressive
Bits/(Pixel*Frame) : 0.143
Stream size : 3.30 GiB (84%)
Title : Tiberiumsun69
Writing library : x264 core 146 r2538 121396c
Encoding settings : cabac=1 / ref=3 / deblock=1:0:0 / analyse=0x3:0x113 / me=umh / subme=9 / psy=1 / psy_rd=1.00:0.10 / mixed_ref=1 / me_range=32 / chroma_me=1 / trellis=2 / 8x8dct=1 / cqm=0 / deadzone=21,11 / fast_pskip=0 / chroma_qp_offset=-3 / threads=12 / lookahead_threads=3 / sliced_threads=0 / nr=0 / decimate=1 / interlaced=0 / bluray_compat=0 / constrained_intra=0 / bframes=16 / b_pyramid=2 / b_adapt=2 / b_bias=0 / direct=3 / weightb=1 / open_gop=0 / weightp=2 / keyint=600 / keyint_min=59 / scenecut=40 / intra_refresh=0 / rc_lookahead=40 / rc=2pass / mbtree=0 / bitrate=3775 / ratetol=1.0 / qcomp=0.60 / qpmin=0 / qpmax=69 / qpstep=4 / cplxblur=20.0 / qblur=0.5 / vbv_maxrate=14000 / vbv_bufsize=14000 / nal_hrd=none / filler=0 / ip_ratio=1.40 / pb_ratio=1.30 / aq=1:1.00
Language : English
Default : Yes
Forced : No
Audio
ID : 2
Format : AC-3
Format/Info : Audio Coding 3
Mode extension : CM (complete main)
Format settings, Endianness : Big
Codec ID : A_AC3
Duration : 2h 7mn
Bit rate mode : Constant
Bit rate : 640 Kbps
Channel(s) : 6 channels
Channel positions : Front: L C R, Side: L R, LFE
Sampling rate : 48.0 KHz
Compression mode : Lossy
Stream size : 586 MiB (14%)
Title : Дубляж
Language : Russian
Default : Yes
Forced : No
Text #1
ID : 3
Format : UTF-8
Codec ID : S_TEXT/UTF8
Codec ID/Info : UTF-8 Plain Text
Title : Форсированные
Language : Russian
Default : Yes
Forced : No
Text #2
ID : 4
Format : UTF-8
Codec ID : S_TEXT/UTF8
Codec ID/Info : UTF-8 Plain Text
Title : Полные
Language : Russian
Default : No
Forced : No
Text #3
ID : 5
Format : UTF-8
Codec ID : S_TEXT/UTF8
Codec ID/Info : UTF-8 Plain Text
Title : Полные
Language : English
Default : No
Forced : No
Menu
00:00:00.000 : en:Opening Sequence
00:06:38.564 : en:Sharp 'chuting
00:09:22.311 : en:Main Titles
00:13:56.669 : en:The Drax Estate
00:16:52.928 : en:Centrifugal Bond
00:19:04.685 : en:Dufour-Play
00:24:12.075 : en:Safecracking
00:28:31.918 : en:A Pheasant Pastime
00:33:46.858 : en:Dogged Determination
00:39:28.657 : en:Trailing Dr. Goodhead
00:43:02.162 : en:Going, Going, Gondola
00:47:05.322 : en:Toxic Encounters
00:51:58.156 : en:By Sword & Piano Chord
00:55:37.334 : en:Disarming Dr. Goodhead
00:58:33.718 : en:Revelry in Rio
01:00:35.882 : en:A Toothy Clown
01:04:41.627 : en:The Tram Ram
01:11:07.263 : en:Kidnapped
01:14:30.215 : en:Magnificent...Bond?
01:18:40.966 : en:What's Mines Is Yours
01:20:26.238 : en:Not Hanging Around
01:23:37.679 : en:Of Beauties & Boas
01:33:15.172 : en:Launching the Fleet
01:37:45.359 : en:Some Like It Hot
01:42:51.748 : en:Cockpit for Two
01:44:55.706 : en:Mett the Space Race
01:53:52.784 : en:In the City in Space
01:57:19.907 : en:Mutiny
02:00:20.338 : en:Battle in Space
02:01:12.348 : en:Launching Drax
02:03:19.975 : en:Globe Tracking
02:05:19.762 : en:End Credits

Осьминожка MI

General
Unique ID : 236557881564714591360305829734802142551 (0xB1F7640969B3304199CA2E90C2A23557)
Format : Matroska
Format version : Version 4 / Version 2
File size : 3.95 GiB
Duration : 2h 10mn
Overall bit rate : 4 325 Kbps
Movie name : Tiberiumsun69
Encoded date : UTC 2015-09-15 17:58:24
Writing application : mkvmerge v8.3.0 ('Over the Horizon') 64bit
Writing library : libebml v1.3.1 + libmatroska v1.4.2
Attachements : Cover.png
Video
ID : 1
Format : AVC
Format/Info : Advanced Video Codec
Format profile : High@L4.1
Format settings, CABAC : Yes
Format settings, ReFrames : 4 frames
Codec ID : V_MPEG4/ISO/AVC
Duration : 2h 10mn
Bit rate : 3 680 Kbps
Width : 1 024 pixels
Height : 432 pixels
Display aspect ratio : 2.40:1
Frame rate mode : Constant
Frame rate : 59.880 fps
Original frame rate : 59.940 fps
Color space : YUV
Chroma subsampling : 4:2:0
Bit depth : 8 bits
Scan type : Progressive
Bits/(Pixel*Frame) : 0.139
Stream size : 3.29 GiB (83%)
Title : Tiberiumsun69
Writing library : x264 core 146 r2538 121396c
Encoding settings : cabac=1 / ref=3 / deblock=1:0:0 / analyse=0x3:0x113 / me=umh / subme=9 / psy=1 / psy_rd=1.00:0.10 / mixed_ref=1 / me_range=32 / chroma_me=1 / trellis=2 / 8x8dct=1 / cqm=0 / deadzone=21,11 / fast_pskip=0 / chroma_qp_offset=-3 / threads=12 / lookahead_threads=3 / sliced_threads=0 / nr=0 / decimate=1 / interlaced=0 / bluray_compat=0 / constrained_intra=0 / bframes=16 / b_pyramid=2 / b_adapt=2 / b_bias=0 / direct=3 / weightb=1 / open_gop=0 / weightp=2 / keyint=600 / keyint_min=59 / scenecut=40 / intra_refresh=0 / rc_lookahead=40 / rc=2pass / mbtree=0 / bitrate=3680 / ratetol=1.0 / qcomp=0.60 / qpmin=0 / qpmax=69 / qpstep=4 / cplxblur=20.0 / qblur=0.5 / vbv_maxrate=14000 / vbv_bufsize=14000 / nal_hrd=none / filler=0 / ip_ratio=1.40 / pb_ratio=1.30 / aq=1:1.00
Language : English
Default : Yes
Forced : No
Audio
ID : 2
Format : AC-3
Format/Info : Audio Coding 3
Mode extension : CM (complete main)
Format settings, Endianness : Big
Codec ID : A_AC3
Duration : 2h 10mn
Bit rate mode : Constant
Bit rate : 640 Kbps
Channel(s) : 6 channels
Channel positions : Front: L C R, Side: L R, LFE
Sampling rate : 48.0 KHz
Compression mode : Lossy
Stream size : 599 MiB (15%)
Title : Дубляж
Language : Russian
Default : Yes
Forced : No
Text #1
ID : 3
Format : UTF-8
Codec ID : S_TEXT/UTF8
Codec ID/Info : UTF-8 Plain Text
Title : Полные
Language : Russian
Default : No
Forced : No
Text #2
ID : 4
Format : UTF-8
Codec ID : S_TEXT/UTF8
Codec ID/Info : UTF-8 Plain Text
Title : Полные
Language : English
Default : No
Forced : No
Menu
00:00:00.000 : en:Military Maneuver
00:03:16.946 : en:Adios Amigos
00:07:28.197 : en:Title
00:10:36.177 : en:No Clowning
00:13:22.760 : en:Eggs Posed
00:16:10.094 : en:Armament Argument
00:19:33.088 : en:Fakes and Fanatics
00:25:20.727 : en:Property of a Lady
00:29:13.668 : en:A Deal in Delhi
00:34:10.840 : en:Loaded Dice
00:38:50.536 : en:Company Car
00:41:38.370 : en:Gadgets Galore
00:46:29.286 : en:Dinner with Dame
00:49:10.072 : en:Palatial Palace
00:53:43.428 : en:Checking Out
00:56:22.587 : en:Soviet Psycho
01:00:27.123 : en:Dangerous Game
01:06:06.337 : en:The Octopalace
01:11:43.924 : en:The Power of Money
01:14:10.696 : en:Two of a Kind
01:20:24.402 : en:Stuck on You
01:22:27.859 : en:Circus of Deceit
01:25:32.377 : en:Russian Rubies
01:28:24.173 : en:This Show's A Bomb
01:31:51.297 : en:Orlov Sounds Off
01:40:06.959 : en:Train Ride
01:45:25.861 : en:Parade
01:51:06.451 : en:Defusing the Bomb
01:55:59.452 : en:Girl Revenge
01:59:50.099 : en:Hot-Air Help
02:02:46.067 : en:Airborne Agent
02:07:35.105 : en:Credits

Никогда не говори «никогда» MI

General
Unique ID : 192625102177645983172241184309524608028 (0x90EA3EC78DEABFDC8A4E36EAE32CB41C)
Format : Matroska
Format version : Version 4 / Version 2
File size : 3.94 GiB
Duration : 2h 14mn
Overall bit rate : 4 203 Kbps
Movie name : Tiberiumsun69
Encoded date : UTC 2015-09-18 11:00:58
Writing application : mkvmerge v8.3.0 ('Over the Horizon') 64bit
Writing library : libebml v1.3.1 + libmatroska v1.4.2
Attachements : Cover.png
Video
ID : 1
Format : AVC
Format/Info : Advanced Video Codec
Format profile : High@L4.1
Format settings, CABAC : Yes
Format settings, ReFrames : 4 frames
Codec ID : V_MPEG4/ISO/AVC
Duration : 2h 14mn
Bit rate : 3 560 Kbps
Width : 1 024 pixels
Height : 432 pixels
Display aspect ratio : 2.40:1
Frame rate mode : Constant
Frame rate : 59.880 fps
Original frame rate : 59.940 fps
Color space : YUV
Chroma subsampling : 4:2:0
Bit depth : 8 bits
Scan type : Progressive
Bits/(Pixel*Frame) : 0.134
Stream size : 3.26 GiB (83%)
Title : Tiberiumsun69
Writing library : x264 core 146 r2538 121396c
Encoding settings : cabac=1 / ref=3 / deblock=1:0:0 / analyse=0x3:0x113 / me=umh / subme=9 / psy=1 / psy_rd=1.00:0.10 / mixed_ref=1 / me_range=32 / chroma_me=1 / trellis=2 / 8x8dct=1 / cqm=0 / deadzone=21,11 / fast_pskip=0 / chroma_qp_offset=-3 / threads=12 / lookahead_threads=3 / sliced_threads=0 / nr=0 / decimate=1 / interlaced=0 / bluray_compat=0 / constrained_intra=0 / bframes=16 / b_pyramid=2 / b_adapt=2 / b_bias=0 / direct=3 / weightb=1 / open_gop=0 / weightp=2 / keyint=600 / keyint_min=59 / scenecut=40 / intra_refresh=0 / rc_lookahead=40 / rc=2pass / mbtree=0 / bitrate=3560 / ratetol=1.0 / qcomp=0.60 / qpmin=0 / qpmax=69 / qpstep=4 / cplxblur=20.0 / qblur=0.5 / vbv_maxrate=14000 / vbv_bufsize=14000 / nal_hrd=none / filler=0 / ip_ratio=1.40 / pb_ratio=1.30 / aq=1:1.00
Language : English
Default : Yes
Forced : No
Audio
ID : 2
Format : AC-3
Format/Info : Audio Coding 3
Mode extension : CM (complete main)
Format settings, Endianness : Big
Codec ID : A_AC3
Duration : 2h 14mn
Bit rate mode : Constant
Bit rate : 640 Kbps
Channel(s) : 6 channels
Channel positions : Front: L C R, Side: L R, LFE
Sampling rate : 48.0 KHz
Compression mode : Lossy
Stream size : 614 MiB (15%)
Title : Многоголосый, закадровый R5
Language : Russian
Default : Yes
Forced : No
Text #1
ID : 3
Format : UTF-8
Codec ID : S_TEXT/UTF8
Codec ID/Info : UTF-8 Plain Text
Title : Форсированные
Language : Russian
Default : Yes
Forced : No
Text #2
ID : 4
Format : UTF-8
Codec ID : S_TEXT/UTF8
Codec ID/Info : UTF-8 Plain Text
Title : Полные
Language : Russian
Default : No
Forced : No
Text #3
ID : 5
Format : ASS
Codec ID : S_TEXT/ASS
Codec ID/Info : Advanced Sub Station Alpha
Compression mode : Lossless
Title : Полные
Language : English
Default : No
Forced : No
Menu
00:00:00.000 : en:Chapter 1
00:04:17.173 : en:Chapter 2
00:07:35.454 : en:Chapter 3
00:10:18.284 : en:Chapter 4
00:12:53.689 : en:Chapter 5
00:16:07.007 : en:Chapter 6
00:23:00.462 : en:Chapter 7
00:27:06.499 : en:Chapter 8
00:28:33.962 : en:Chapter 9
00:31:17.709 : en:Chapter 10
00:37:06.974 : en:Chapter 11
00:40:30.010 : en:Chapter 12
00:43:05.165 : en:Chapter 13
00:45:41.905 : en:Chapter 14
00:49:03.023 : en:Chapter 15
00:53:33.627 : en:Chapter 16
00:56:18.083 : en:Chapter 17
00:59:38.700 : en:Chapter 18
01:04:25.820 : en:Chapter 19
01:09:58.360 : en:Chapter 20
01:17:21.595 : en:Chapter 21
01:20:15.227 : en:Chapter 22
01:25:33.920 : en:Chapter 23
01:30:16.661 : en:Chapter 24
01:34:48.349 : en:Chapter 25
01:38:34.533 : en:Chapter 26
01:41:19.156 : en:Chapter 27
01:49:31.189 : en:Chapter 28
01:51:40.652 : en:Chapter 29
01:57:33.796 : en:Chapter 30
02:04:21.996 : en:Chapter 31
02:08:05.177 : en:Chapter 32

Вид на убийство MI

General
Unique ID : 207692480929671018505518769740644298501 (0x9C401DE8386F4AB78663F6B261D72F05)
Format : Matroska
Format version : Version 4 / Version 2
File size : 3.96 GiB
Duration : 2h 11mn
Overall bit rate : 4 316 Kbps
Movie name : Tiberiumsun69
Encoded date : UTC 2015-09-15 18:16:43
Writing application : mkvmerge v8.3.0 ('Over the Horizon') 64bit
Writing library : libebml v1.3.1 + libmatroska v1.4.2
Attachements : Cover.png
Video
ID : 1
Format : AVC
Format/Info : Advanced Video Codec
Format profile : High@L4.1
Format settings, CABAC : Yes
Format settings, ReFrames : 4 frames
Codec ID : V_MPEG4/ISO/AVC
Duration : 2h 11mn
Bit rate : 3 670 Kbps
Width : 1 024 pixels
Height : 432 pixels
Display aspect ratio : 2.40:1
Frame rate mode : Constant
Frame rate : 59.880 fps
Original frame rate : 59.940 fps
Color space : YUV
Chroma subsampling : 4:2:0
Bit depth : 8 bits
Scan type : Progressive
Bits/(Pixel*Frame) : 0.139
Stream size : 3.29 GiB (83%)
Title : Tiberiumsun69
Writing library : x264 core 146 r2538 121396c
Encoding settings : cabac=1 / ref=3 / deblock=1:0:0 / analyse=0x3:0x113 / me=umh / subme=9 / psy=1 / psy_rd=1.00:0.10 / mixed_ref=1 / me_range=32 / chroma_me=1 / trellis=2 / 8x8dct=1 / cqm=0 / deadzone=21,11 / fast_pskip=0 / chroma_qp_offset=-3 / threads=12 / lookahead_threads=3 / sliced_threads=0 / nr=0 / decimate=1 / interlaced=0 / bluray_compat=0 / constrained_intra=0 / bframes=16 / b_pyramid=2 / b_adapt=2 / b_bias=0 / direct=3 / weightb=1 / open_gop=0 / weightp=2 / keyint=600 / keyint_min=59 / scenecut=40 / intra_refresh=0 / rc_lookahead=40 / rc=2pass / mbtree=0 / bitrate=3670 / ratetol=1.0 / qcomp=0.60 / qpmin=0 / qpmax=69 / qpstep=4 / cplxblur=20.0 / qblur=0.5 / vbv_maxrate=14000 / vbv_bufsize=14000 / nal_hrd=none / filler=0 / ip_ratio=1.40 / pb_ratio=1.30 / aq=1:1.00
Language : English
Default : Yes
Forced : No
Audio
ID : 2
Format : AC-3
Format/Info : Audio Coding 3
Mode extension : CM (complete main)
Format settings, Endianness : Big
Codec ID : A_AC3
Duration : 2h 11mn
Bit rate mode : Constant
Bit rate : 640 Kbps
Channel(s) : 6 channels
Channel positions : Front: L C R, Side: L R, LFE
Sampling rate : 48.0 KHz
Compression mode : Lossy
Stream size : 601 MiB (15%)
Title : Дубляж
Language : Russian
Default : Yes
Forced : No
Text #1
ID : 3
Format : UTF-8
Codec ID : S_TEXT/UTF8
Codec ID/Info : UTF-8 Plain Text
Title : Полные
Language : Russian
Default : No
Forced : No
Text #2
ID : 4
Format : UTF-8
Codec ID : S_TEXT/UTF8
Codec ID/Info : UTF-8 Plain Text
Title : Полные
Language : English
Default : No
Forced : No
Menu
00:00:00.000 : en:Opening Sequence
00:06:15.666 : en:Main Titles
00:09:39.996 : en:Chip for Chip
00:12:45.639 : en:To Each His Race
00:15:23.881 : en:Butterfly in the Soup
00:18:01.789 : en:Follow That Parachute
00:22:05.574 : en:Horse Trade
00:25:28.944 : en:A Successful Cover
00:29:10.623 : en:Digging and Poking
00:35:42.932 : en:Stablevator
00:39:13.684 : en:All Wrapped Up
00:40:42.314 : en:A Roll on the Mat
00:41:50.883 : en:Back in Bed
00:44:01.847 : en:"Stamina or Speed?"
00:47:18.710 : en:To Inferno and Back
00:52:23.056 : en:A Breath of Fresh Air
00:54:15.627 : en:"No One Ever Leaves"
00:55:52.682 : en:Market Analysis
00:58:40.350 : en:Psycho Steriod Baby
01:01:58.381 : en:Propeller Jam
01:06:47.003 : en:Beautiful DTente
01:12:54.787 : en:Salt Shooter
01:17:13.754 : en:Sutton's Resolve
01:21:08.280 : en:Fact-Finding
01:24:10.211 : en:Meeting at City Hall
01:33:21.053 : en:Fire Engine Safety
01:39:17.117 : en:She's A Miner!
01:42:06.245 : en:All Zorin's Faults
01:46:55.742 : en:What's Mine Is His
01:53:22.504 : en:May Dry!
01:59:27.660 : en:Golden Gate Blimp
02:08:39.795 : en:End Credits

Искры из глаз MI

General
Unique ID : 187818538906503306898565039590621237744 (0x8D4C88E9E7B810E8A032989BC20AD1F0)
Format : Matroska
Format version : Version 4 / Version 2
File size : 3.96 GiB
Duration : 2h 10mn
Overall bit rate : 4 331 Kbps
Movie name : Tiberiumsun69
Encoded date : UTC 2015-09-15 18:25:56
Writing application : mkvmerge v8.3.0 ('Over the Horizon') 64bit
Writing library : libebml v1.3.1 + libmatroska v1.4.2
Attachements : Cover.png
Video
ID : 1
Format : AVC
Format/Info : Advanced Video Codec
Format profile : High@L4.1
Format settings, CABAC : Yes
Format settings, ReFrames : 4 frames
Codec ID : V_MPEG4/ISO/AVC
Duration : 2h 10mn
Bit rate : 3 685 Kbps
Width : 1 024 pixels
Height : 432 pixels
Display aspect ratio : 2.40:1
Frame rate mode : Constant
Frame rate : 59.880 fps
Original frame rate : 59.940 fps
Color space : YUV
Chroma subsampling : 4:2:0
Bit depth : 8 bits
Scan type : Progressive
Bits/(Pixel*Frame) : 0.139
Stream size : 3.30 GiB (83%)
Title : Tiberiumsun69
Writing library : x264 core 146 r2538 121396c
Encoding settings : cabac=1 / ref=3 / deblock=1:0:0 / analyse=0x3:0x113 / me=umh / subme=9 / psy=1 / psy_rd=1.00:0.10 / mixed_ref=1 / me_range=32 / chroma_me=1 / trellis=2 / 8x8dct=1 / cqm=0 / deadzone=21,11 / fast_pskip=0 / chroma_qp_offset=-3 / threads=12 / lookahead_threads=3 / sliced_threads=0 / nr=0 / decimate=1 / interlaced=0 / bluray_compat=0 / constrained_intra=0 / bframes=16 / b_pyramid=2 / b_adapt=2 / b_bias=0 / direct=3 / weightb=1 / open_gop=0 / weightp=2 / keyint=600 / keyint_min=59 / scenecut=40 / intra_refresh=0 / rc_lookahead=40 / rc=2pass / mbtree=0 / bitrate=3685 / ratetol=1.0 / qcomp=0.60 / qpmin=0 / qpmax=69 / qpstep=4 / cplxblur=20.0 / qblur=0.5 / vbv_maxrate=14000 / vbv_bufsize=14000 / nal_hrd=none / filler=0 / ip_ratio=1.40 / pb_ratio=1.30 / aq=1:1.00
Language : English
Default : Yes
Forced : No
Audio
ID : 2
Format : AC-3
Format/Info : Audio Coding 3
Mode extension : CM (complete main)
Format settings, Endianness : Big
Codec ID : A_AC3
Duration : 2h 10mn
Bit rate mode : Constant
Bit rate : 640 Kbps
Channel(s) : 6 channels
Channel positions : Front: L C R, Side: L R, LFE
Sampling rate : 48.0 KHz
Compression mode : Lossy
Stream size : 599 MiB (15%)
Title : Дубляж
Language : Russian
Default : Yes
Forced : No
Text #1
ID : 3
Format : UTF-8
Codec ID : S_TEXT/UTF8
Codec ID/Info : UTF-8 Plain Text
Title : Полные
Language : Russian
Default : No
Forced : No
Text #2
ID : 4
Format : UTF-8
Codec ID : S_TEXT/UTF8
Codec ID/Info : UTF-8 Plain Text
Title : Полные
Language : English
Default : No
Forced : No
Menu
00:00:00.000 : en:Chapter 1
00:07:32.744 : en:Chapter 2
00:10:18.743 : en:Chapter 3
00:14:02.216 : en:Chapter 4
00:17:02.647 : en:Chapter 5
00:22:20.256 : en:Chapter 6
00:28:12.941 : en:Chapter 7
00:31:43.151 : en:Chapter 8
00:35:58.323 : en:Chapter 9
00:39:38.209 : en:Chapter 10
00:42:27.587 : en:Chapter 11
00:44:54.150 : en:Chapter 12
00:50:40.955 : en:Chapter 13
00:57:12.054 : en:Chapter 14
00:59:02.247 : en:Chapter 15
01:02:31.164 : en:Chapter 16
01:07:36.219 : en:Chapter 17
01:12:42.358 : en:Chapter 18
01:17:39.655 : en:Chapter 19
01:20:26.822 : en:Chapter 20
01:24:18.345 : en:Chapter 21
01:28:53.703 : en:Chapter 22
01:33:16.174 : en:Chapter 23
01:37:04.068 : en:Chapter 24
01:42:21.177 : en:Chapter 25
01:49:25.267 : en:Chapter 26
01:52:04.468 : en:Chapter 27
01:56:52.631 : en:Chapter 28
01:58:35.608 : en:Chapter 29
02:00:45.780 : en:Chapter 30
02:05:31.733 : en:Chapter 31
02:08:13.394 : en:Chapter 32

Лицензия на убийство

General
Unique ID : 185012616770380437369464996330665171627 (0x8B3022457C11D9D694CD960B116C5AAB)
Format : Matroska
Format version : Version 4 / Version 2
File size : 3.95 GiB
Duration : 2h 13mn
Overall bit rate : 4 244 Kbps
Movie name : Tiberiumsun69
Encoded date : UTC 2015-09-15 18:32:42
Writing application : mkvmerge v8.3.0 ('Over the Horizon') 64bit
Writing library : libebml v1.3.1 + libmatroska v1.4.2
Attachements : Cover.png
Video
ID : 1
Format : AVC
Format/Info : Advanced Video Codec
Format profile : High@L4.1
Format settings, CABAC : Yes
Format settings, ReFrames : 4 frames
Codec ID : V_MPEG4/ISO/AVC
Duration : 2h 13mn
Bit rate : 3 600 Kbps
Width : 1 024 pixels
Height : 432 pixels
Display aspect ratio : 2.40:1
Frame rate mode : Constant
Frame rate : 59.880 fps
Original frame rate : 59.940 fps
Color space : YUV
Chroma subsampling : 4:2:0
Bit depth : 8 bits
Scan type : Progressive
Bits/(Pixel*Frame) : 0.136
Stream size : 3.28 GiB (83%)
Title : Tiberiumsun69
Writing library : x264 core 146 r2538 121396c
Encoding settings : cabac=1 / ref=3 / deblock=1:0:0 / analyse=0x3:0x113 / me=umh / subme=9 / psy=1 / psy_rd=1.00:0.10 / mixed_ref=1 / me_range=32 / chroma_me=1 / trellis=2 / 8x8dct=1 / cqm=0 / deadzone=21,11 / fast_pskip=0 / chroma_qp_offset=-3 / threads=12 / lookahead_threads=3 / sliced_threads=0 / nr=0 / decimate=1 / interlaced=0 / bluray_compat=0 / constrained_intra=0 / bframes=16 / b_pyramid=2 / b_adapt=2 / b_bias=0 / direct=3 / weightb=1 / open_gop=0 / weightp=2 / keyint=600 / keyint_min=59 / scenecut=40 / intra_refresh=0 / rc_lookahead=40 / rc=2pass / mbtree=0 / bitrate=3600 / ratetol=1.0 / qcomp=0.60 / qpmin=0 / qpmax=69 / qpstep=4 / cplxblur=20.0 / qblur=0.5 / vbv_maxrate=14000 / vbv_bufsize=14000 / nal_hrd=none / filler=0 / ip_ratio=1.40 / pb_ratio=1.30 / aq=1:1.00
Language : English
Default : Yes
Forced : No
Audio
ID : 2
Format : AC-3
Format/Info : Audio Coding 3
Mode extension : CM (complete main)
Format settings, Endianness : Big
Codec ID : A_AC3
Duration : 2h 13mn
Bit rate mode : Constant
Bit rate : 640 Kbps
Channel(s) : 6 channels
Channel positions : Front: L C R, Side: L R, LFE
Sampling rate : 48.0 KHz
Compression mode : Lossy
Stream size : 610 MiB (15%)
Title : Дубляж
Language : Russian
Default : Yes
Forced : No
Text #1
ID : 3
Format : UTF-8
Codec ID : S_TEXT/UTF8
Codec ID/Info : UTF-8 Plain Text
Title : Полные
Language : Russian
Default : No
Forced : No
Text #2
ID : 4
Format : UTF-8
Codec ID : S_TEXT/UTF8
Codec ID/Info : UTF-8 Plain Text
Title : Полные
Language : English
Default : No
Forced : No
Menu
00:00:00.000 : en:Opening Sequence
00:08:37.558 : en:Main Title
00:11:26.727 : en:Everyone Has a Price
00:15:45.069 : en:Underwater "Spring"
00:18:28.315 : en:"See You in Hell"
00:27:32.400 : en:Spy Meets Shark
00:31:28.344 : en:Blood Money
00:32:52.303 : en:Licence Revoked
00:36:16.257 : en:"Man" -Ta Ray
00:40:44.984 : en:"Bolt Your Door"
00:43:33.277 : en:Spy Hunt/Drug Load
00:46:12.978 : en:Waterski Escape
00:47:42.484 : en:Flying Money
00:50:38.952 : en:Bar Fight
00:54:59.921 : en:"Out of Gas!"
00:57:39.539 : en:Banco De Isthmas
01:02:05.972 : en:Prof. High Stakes
01:11:29.743 : en:Family Reunion
01:14:45.814 : en:Evil Meets Evil
01:20:23.819 : en:Netting a Rogue Spy
01:25:41.344 : en:Former British Agent
01:30:40.184 : en:007 Always Returns
01:32:34.465 : en:Pressurised Deposit
01:38:33.407 : en:Romance/Jealousy
01:42:53.667 : en:Drug Plant Tour
01:49:44.369 : en:The Conveyor
01:54:54.387 : en:Profits Up in Flames
01:56:46.499 : en:Truck Jacking
02:01:21.649 : en:Tanker Attack
02:05:32.733 : en:Not Dead Yet
02:08:31.537 : en:Splashing Finish
02:10:36.745 : en:End Credits

Золотой глаз MI

General
Unique ID : 240722085082670700773119745592136182191 (0xB519631F1EBD988A81B88AE9672629AF)
Format : Matroska
Format version : Version 4 / Version 2
File size : 3.94 GiB
Duration : 2h 10mn
Overall bit rate : 4 343 Kbps
Movie name : Tiberiumsun69
Encoded date : UTC 2015-09-16 00:19:12
Writing application : mkvmerge v8.3.0 ('Over the Horizon') 64bit
Writing library : libebml v1.3.1 + libmatroska v1.4.2
Attachements : Cover.png
Video
ID : 1
Format : AVC
Format/Info : Advanced Video Codec
Format profile : High@L4.1
Format settings, CABAC : Yes
Format settings, ReFrames : 4 frames
Codec ID : V_MPEG4/ISO/AVC
Duration : 2h 10mn
Bit rate : 3 700 Kbps
Width : 1 024 pixels
Height : 432 pixels
Display aspect ratio : 2.40:1
Frame rate mode : Constant
Frame rate : 59.880 fps
Original frame rate : 59.940 fps
Color space : YUV
Chroma subsampling : 4:2:0
Bit depth : 8 bits
Scan type : Progressive
Bits/(Pixel*Frame) : 0.140
Stream size : 3.28 GiB (83%)
Title : Tiberiumsun69
Writing library : x264 core 146 r2538 121396c
Encoding settings : cabac=1 / ref=3 / deblock=1:0:0 / analyse=0x3:0x113 / me=umh / subme=9 / psy=1 / psy_rd=1.00:0.10 / mixed_ref=1 / me_range=32 / chroma_me=1 / trellis=2 / 8x8dct=1 / cqm=0 / deadzone=21,11 / fast_pskip=0 / chroma_qp_offset=-3 / threads=12 / lookahead_threads=3 / sliced_threads=0 / nr=0 / decimate=1 / interlaced=0 / bluray_compat=0 / constrained_intra=0 / bframes=16 / b_pyramid=2 / b_adapt=2 / b_bias=0 / direct=3 / weightb=1 / open_gop=0 / weightp=2 / keyint=600 / keyint_min=59 / scenecut=40 / intra_refresh=0 / rc_lookahead=40 / rc=2pass / mbtree=0 / bitrate=3700 / ratetol=1.0 / qcomp=0.60 / qpmin=0 / qpmax=69 / qpstep=4 / cplxblur=20.0 / qblur=0.5 / vbv_maxrate=14000 / vbv_bufsize=14000 / nal_hrd=none / filler=0 / ip_ratio=1.40 / pb_ratio=1.30 / aq=1:1.00
Language : English
Default : Yes
Forced : No
Audio
ID : 2
Format : AC-3
Format/Info : Audio Coding 3
Mode extension : CM (complete main)
Format settings, Endianness : Big
Codec ID : A_AC3
Duration : 2h 10mn
Bit rate mode : Constant
Bit rate : 640 Kbps
Channel(s) : 6 channels
Channel positions : Front: L C R, Side: L R, LFE
Sampling rate : 48.0 KHz
Compression mode : Lossy
Stream size : 595 MiB (15%)
Title : Дубляж
Language : Russian
Default : Yes
Forced : No
Text #1
ID : 3
Format : UTF-8
Codec ID : S_TEXT/UTF8
Codec ID/Info : UTF-8 Plain Text
Title : Полные
Language : Russian
Default : No
Forced : No
Text #2
ID : 4
Format : UTF-8
Codec ID : S_TEXT/UTF8
Codec ID/Info : UTF-8 Plain Text
Title : Полные
Language : English
Default : No
Forced : No
Menu
00:00:00.000 : en:Opening Sequence
00:10:29.962 : en:Main Titles
00:13:20.132 : en:Aston Martin DB-5
00:17:06.316 : en:Baccarat with Xenia
00:24:23.378 : en:Test-Driving a Tiger
00:27:56.091 : en:Boris and Natalya
00:31:05.864 : en:Aiming GoldenEye
00:36:24.056 : en:After Hours Briefing
00:38:57.335 : en:Survivor
00:43:19.430 : en:M Informs her Spy
00:48:11.680 : en:St. Petersburg, Russia
00:50:29.192 : en:Q's Latest Gadgets
00:53:08.101 : en:Jake Wade
00:56:08.073 : en:Computerized Warning
00:57:47.005 : en:Getting Even
01:03:42.026 : en:007 gets a grip
01:06:16.055 : en:"Back from the Dead"
01:11:04.969 : en:Trapped in the Tiger
01:13:20.270 : en:Interrogation
01:17:49.456 : en:Archives Ambush
01:19:54.456 : en:All Tanked Up
01:25:07.936 : en:Derailing Evil Plans
01:30:50.611 : en:Escape
01:34:26.160 : en:Wade drops in
01:40:12.297 : en:Crashing in Cuba
01:44:34.268 : en:Next Target: London
01:47:31.445 : en:Stopping a Satellite
01:50:41.343 : en:Philosophical Face-Off
01:56:01.120 : en:Taking a breather
02:00:53.704 : en:Spy versus Spy
02:04:35.009 : en:Alone at Last
02:06:33.002 : en:End Credits

Завтра не умрет никогда MI

General
Unique ID : 234698611893516688030294141745406185844 (0xB0914EF6EB4070C284F7449860449174)
Format : Matroska
Format version : Version 4 / Version 2
File size : 3.91 GiB
Duration : 1h 59mn
Overall bit rate : 4 693 Kbps
Movie name : Tiberiumsun69
Encoded date : UTC 2015-09-16 00:25:43
Writing application : mkvmerge v8.3.0 ('Over the Horizon') 64bit
Writing library : libebml v1.3.1 + libmatroska v1.4.2
Attachements : Cover.png
Video
ID : 1
Format : AVC
Format/Info : Advanced Video Codec
Format profile : High@L4.1
Format settings, CABAC : Yes
Format settings, ReFrames : 4 frames
Codec ID : V_MPEG4/ISO/AVC
Duration : 1h 59mn
Bit rate : 4 050 Kbps
Width : 1 024 pixels
Height : 440 pixels
Display aspect ratio : 2.35:1
Frame rate mode : Constant
Frame rate : 59.880 fps
Original frame rate : 59.940 fps
Color space : YUV
Chroma subsampling : 4:2:0
Bit depth : 8 bits
Scan type : Progressive
Bits/(Pixel*Frame) : 0.150
Stream size : 3.30 GiB (84%)
Title : Tiberiumsun69
Writing library : x264 core 146 r2538 121396c
Encoding settings : cabac=1 / ref=3 / deblock=1:0:0 / analyse=0x3:0x113 / me=umh / subme=9 / psy=1 / psy_rd=1.00:0.10 / mixed_ref=1 / me_range=32 / chroma_me=1 / trellis=2 / 8x8dct=1 / cqm=0 / deadzone=21,11 / fast_pskip=0 / chroma_qp_offset=-3 / threads=12 / lookahead_threads=3 / sliced_threads=0 / nr=0 / decimate=1 / interlaced=0 / bluray_compat=0 / constrained_intra=0 / bframes=16 / b_pyramid=2 / b_adapt=2 / b_bias=0 / direct=3 / weightb=1 / open_gop=0 / weightp=2 / keyint=600 / keyint_min=59 / scenecut=40 / intra_refresh=0 / rc_lookahead=40 / rc=2pass / mbtree=0 / bitrate=4050 / ratetol=1.0 / qcomp=0.60 / qpmin=0 / qpmax=69 / qpstep=4 / cplxblur=20.0 / qblur=0.5 / vbv_maxrate=14000 / vbv_bufsize=14000 / nal_hrd=none / filler=0 / ip_ratio=1.40 / pb_ratio=1.30 / aq=1:1.00
Language : English
Default : Yes
Forced : No
Audio
ID : 2
Format : AC-3
Format/Info : Audio Coding 3
Mode extension : CM (complete main)
Format settings, Endianness : Big
Codec ID : A_AC3
Duration : 1h 59mn
Bit rate mode : Constant
Bit rate : 640 Kbps
Channel(s) : 6 channels
Channel positions : Front: L C R, Side: L R, LFE
Sampling rate : 48.0 KHz
Compression mode : Lossy
Stream size : 546 MiB (14%)
Title : Дубляж
Language : Russian
Default : Yes
Forced : No
Text #1
ID : 3
Format : UTF-8
Codec ID : S_TEXT/UTF8
Codec ID/Info : UTF-8 Plain Text
Title : Полные
Language : Russian
Default : No
Forced : No
Text #2
ID : 4
Format : UTF-8
Codec ID : S_TEXT/UTF8
Codec ID/Info : UTF-8 Plain Text
Title : Полные
Language : English
Default : No
Forced : No
Menu
00:00:00.000 : en:Opening Sequence
00:04:34.315 : en:Main Titles
00:06:36.646 : en:Aston Martin DB-5
00:09:37.285 : en:Baccarat with Xenia
00:12:37.131 : en:Test-Driving a Tiger
00:15:01.400 : en:Boris and Natalya
00:20:09.875 : en:Aiming GoldenEye
00:22:10.370 : en:After Hours Briefing
00:27:31.232 : en:Survivor
00:30:34.916 : en:M Informs her Spy
00:32:23.608 : en:St. Petersburg, Russia
00:36:29.520 : en:Q's Latest Gadgets
00:39:19.607 : en:Jake Wade
00:42:09.777 : en:Computerized Warning
00:47:14.289 : en:Getting Even
00:50:22.686 : en:007 gets a grip
00:53:23.700 : en:"Back from the Dead"
00:59:32.068 : en:Trapped in the Tiger
01:03:39.315 : en:Interrogation
01:12:01.525 : en:Archives Ambush
01:15:09.713 : en:All Tanked Up
01:16:43.223 : en:Derailing Evil Plans
01:17:53.710 : en:Escape
01:24:22.348 : en:Wade drops in
01:26:15.587 : en:Crashing in Cuba
01:29:08.051 : en:Next Target: London
01:31:17.221 : en:Stopping a Satellite
01:34:20.988 : en:Philosophical Face-Off
01:38:35.659 : en:Taking a breather
01:43:46.178 : en:Spy versus Spy
01:48:43.225 : en:Alone at Last
01:55:22.707 : en:End Credits

И целого мира мало MI

General
Unique ID : 197503065101685774354997934355896348200 (0x9495B4EB8548F122B4C208FE8D642E28)
Format : Matroska
Format version : Version 4 / Version 2
File size : 3.94 GiB
Duration : 2h 8mn
Overall bit rate : 4 393 Kbps
Movie name : Tiberiumsun69
Encoded date : UTC 2015-09-16 11:15:15
Writing application : mkvmerge v8.3.0 ('Over the Horizon') 64bit
Writing library : libebml v1.3.1 + libmatroska v1.4.2
Attachements : Cover.png
Video
ID : 1
Format : AVC
Format/Info : Advanced Video Codec
Format profile : High@L4.1
Format settings, CABAC : Yes
Format settings, ReFrames : 4 frames
Codec ID : V_MPEG4/ISO/AVC
Duration : 2h 8mn
Bit rate : 3 750 Kbps
Width : 1 024 pixels
Height : 432 pixels
Display aspect ratio : 2.40:1
Frame rate mode : Constant
Frame rate : 59.880 fps
Original frame rate : 59.940 fps
Color space : YUV
Chroma subsampling : 4:2:0
Bit depth : 8 bits
Scan type : Progressive
Bits/(Pixel*Frame) : 0.142
Stream size : 3.29 GiB (83%)
Title : Tiberiumsun69
Writing library : x264 core 146 r2538 121396c
Encoding settings : cabac=1 / ref=3 / deblock=1:0:0 / analyse=0x3:0x113 / me=umh / subme=9 / psy=1 / psy_rd=1.00:0.10 / mixed_ref=1 / me_range=32 / chroma_me=1 / trellis=2 / 8x8dct=1 / cqm=0 / deadzone=21,11 / fast_pskip=0 / chroma_qp_offset=-3 / threads=12 / lookahead_threads=3 / sliced_threads=0 / nr=0 / decimate=1 / interlaced=0 / bluray_compat=0 / constrained_intra=0 / bframes=16 / b_pyramid=2 / b_adapt=2 / b_bias=0 / direct=3 / weightb=1 / open_gop=0 / weightp=2 / keyint=600 / keyint_min=59 / scenecut=40 / intra_refresh=0 / rc_lookahead=40 / rc=2pass / mbtree=0 / bitrate=3750 / ratetol=1.0 / qcomp=0.60 / qpmin=0 / qpmax=69 / qpstep=4 / cplxblur=20.0 / qblur=0.5 / vbv_maxrate=14000 / vbv_bufsize=14000 / nal_hrd=none / filler=0 / ip_ratio=1.40 / pb_ratio=1.30 / aq=1:1.00
Language : English
Default : Yes
Forced : No
Audio
ID : 2
Format : AC-3
Format/Info : Audio Coding 3
Mode extension : CM (complete main)
Format settings, Endianness : Big
Codec ID : A_AC3
Duration : 2h 8mn
Bit rate mode : Constant
Bit rate : 640 Kbps
Channel(s) : 6 channels
Channel positions : Front: L C R, Side: L R, LFE
Sampling rate : 48.0 KHz
Compression mode : Lossy
Stream size : 587 MiB (15%)
Title : Дубляж
Language : Russian
Default : Yes
Forced : No
Text #1
ID : 3
Format : UTF-8
Codec ID : S_TEXT/UTF8
Codec ID/Info : UTF-8 Plain Text
Title : Полные
Language : Russian
Default : No
Forced : No
Text #2
ID : 4
Format : UTF-8
Codec ID : S_TEXT/UTF8
Codec ID/Info : UTF-8 Plain Text
Title : Полные
Language : English
Default : No
Forced : No
Menu
00:00:00.000 : en:Logos/Slain in Spain
00:04:32.063 : en:Exploding Currency
00:07:27.780 : en:Blazing Boat Chase
00:14:17.356 : en:Title/Opening Credits
00:17:07.026 : en:Playing Doctor
00:20:02.910 : en:Q Bids Farewell
00:22:54.164 : en:A Terrorist's Message
00:26:13.989 : en:A Bullet in the Brain
00:28:33.211 : en:Bond Meets Elektra
00:33:54.073 : en:Skiing Under Fire
00:40:18.666 : en:"Stay with Me"
00:42:22.706 : en:"Shaken Not Stirred"
00:48:34.286 : en:"the Devil's Breath"
00:50:35.657 : en:First Sex Then Spying
00:56:32.847 : en:Dr. Christmas Jones
00:59:31.276 : en:"I'm Already Dead!"
01:04:18.354 : en:Sealed in Explosion
01:08:49.166 : en:"You Used Me!"
01:12:30.554 : en:Diffusing a Pipe Bomb
01:18:34.126 : en:A Slap in the Face
01:20:00.128 : en:"What Do We Do Now?"
01:21:55.785 : en:"Touch Your Destiny"
01:25:25.036 : en:"I Feel Nothing!"
01:27:27.784 : en:What Do You Know?"
01:29:38.122 : en:Cutting Edge/Caviar
01:36:26.614 : en:"They Want the Sub!"
01:42:38.485 : en:"a Power Over Men"
01:48:46.144 : en:"Call Him Off!"
01:50:30.915 : en:Diving for the Girl
01:55:55.949 : en:Stopping a Madman
02:02:34.347 : en:"Christmas in Turkey"
02:04:15.906 : en:End Credits

Умри, но не сейчас MI

General
Unique ID : 234593070661108895544508289083840157114 (0xB07CFB6148E7C2DF903E791E076055BA)
Format : Matroska
Format version : Version 4 / Version 2
File size : 3.96 GiB
Duration : 2h 12mn
Overall bit rate : 4 271 Kbps
Movie name : TIberiumsun69
Encoded date : UTC 2015-09-16 11:29:50
Writing application : mkvmerge v8.3.0 ('Over the Horizon') 64bit
Writing library : libebml v1.3.1 + libmatroska v1.4.2
Attachements : Cover.png
Video
ID : 1
Format : AVC
Format/Info : Advanced Video Codec
Format profile : High@L4.1
Format settings, CABAC : Yes
Format settings, ReFrames : 4 frames
Codec ID : V_MPEG4/ISO/AVC
Duration : 2h 12mn
Bit rate : 3 630 Kbps
Width : 1 024 pixels
Height : 432 pixels
Display aspect ratio : 2.40:1
Frame rate mode : Constant
Frame rate : 59.880 fps
Original frame rate : 59.940 fps
Color space : YUV
Chroma subsampling : 4:2:0
Bit depth : 8 bits
Scan type : Progressive
Bits/(Pixel*Frame) : 0.137
Stream size : 3.28 GiB (83%)
Title : Tiberiumsun69
Writing library : x264 core 146 r2538 121396c
Encoding settings : cabac=1 / ref=3 / deblock=1:0:0 / analyse=0x3:0x113 / me=umh / subme=9 / psy=1 / psy_rd=1.00:0.10 / mixed_ref=1 / me_range=32 / chroma_me=1 / trellis=2 / 8x8dct=1 / cqm=0 / deadzone=21,11 / fast_pskip=0 / chroma_qp_offset=-3 / threads=12 / lookahead_threads=3 / sliced_threads=0 / nr=0 / decimate=1 / interlaced=0 / bluray_compat=0 / constrained_intra=0 / bframes=16 / b_pyramid=2 / b_adapt=2 / b_bias=0 / direct=3 / weightb=1 / open_gop=0 / weightp=2 / keyint=600 / keyint_min=59 / scenecut=40 / intra_refresh=0 / rc_lookahead=40 / rc=2pass / mbtree=0 / bitrate=3630 / ratetol=1.0 / qcomp=0.60 / qpmin=0 / qpmax=69 / qpstep=4 / cplxblur=20.0 / qblur=0.5 / vbv_maxrate=14000 / vbv_bufsize=14000 / nal_hrd=none / filler=0 / ip_ratio=1.40 / pb_ratio=1.30 / aq=1:1.00
Language : English
Default : Yes
Forced : No
Audio
ID : 2
Format : AC-3
Format/Info : Audio Coding 3
Mode extension : CM (complete main)
Format settings, Endianness : Big
Codec ID : A_AC3
Duration : 2h 12mn
Bit rate mode : Constant
Bit rate : 640 Kbps
Channel(s) : 6 channels
Channel positions : Front: L C R, Side: L R, LFE
Sampling rate : 48.0 KHz
Compression mode : Lossy
Stream size : 607 MiB (15%)
Title : Дубляж
Language : Russian
Default : Yes
Forced : No
Text #1
ID : 3
Format : UTF-8
Codec ID : S_TEXT/UTF8
Codec ID/Info : UTF-8 Plain Text
Title : Полные
Language : Russian
Default : No
Forced : No
Text #2
ID : 4
Format : UTF-8
Codec ID : S_TEXT/UTF8
Codec ID/Info : UTF-8 Plain Text
Title : Полные
Language : English
Default : No
Forced : No
Menu
00:00:00.000 : en:The Surfer Has Landed
00:09:28.150 : en:Like a Hovercraft on Fire
00:13:15.961 : en:Main Title/Torture
00:16:40.833 : en:Anger Management
00:22:19.796 : en:The Diamond Trade
00:27:32.400 : en:A Bridge Between Worlds
00:30:59.607 : en:Unwelcome Back
00:34:35.823 : en:A Heartbeat From Luxury
00:39:46.842 : en:Massaging a Deal
00:43:35.821 : en:Slow-Burning Cuban
00:48:40.917 : en:A Wonderful View
00:50:01.581 : en:Wheelchair Accessible
00:52:21.888 : en:The Dna Artist's Suffering
00:59:20.640 : en:Radical Makeover
01:00:13.276 : en:London Calling
01:03:00.234 : en:Serious Swordplay
01:08:23.432 : en:Best Kept Underground
01:11:07.554 : en:Q's Cutting Edge
01:13:52.219 : en:A Frosty Assessment
01:19:23.717 : en:Ice Palace of Dreams
01:21:33.304 : en:"He Knows Nothing"
01:26:55.710 : en:"Like a Diamond in the Sky"
01:31:25.771 : en:Intruder Alert!
01:35:07.618 : en:In Bed/in Traction
01:39:53.570 : en:Laser Surgery
01:44:56.248 : en:Double-Cross
01:49:43.117 : en:Fire on Ice
01:55:49.150 : en:In Cold Pursuit
02:01:52.388 : en:Chase Against Time
02:05:08.083 : en:Headfirst Into North Korea
02:06:58.694 : en:Like Father, Unlike Son
02:08:26.698 : en:Face-Off Under Pressure

Казино Рояль (2006) MI

General
Unique ID : 183925637488748508855581827540786393401 (0x8A5ECA0E1FA51A319225F99A9198B139)
Format : Matroska
Format version : Version 4 / Version 2
File size : 3.93 GiB
Duration : 2h 24mn
Overall bit rate : 3 890 Kbps
Movie name : Tiberiumsun69
Encoded date : UTC 2015-09-16 11:44:43
Writing application : mkvmerge v8.3.0 ('Over the Horizon') 64bit
Writing library : libebml v1.3.1 + libmatroska v1.4.2
Attachements : Cover.png
Video
ID : 1
Format : AVC
Format/Info : Advanced Video Codec
Format profile : High@L4.1
Format settings, CABAC : Yes
Format settings, ReFrames : 4 frames
Codec ID : V_MPEG4/ISO/AVC
Duration : 2h 24mn
Bit rate : 3 250 Kbps
Width : 1 024 pixels
Height : 424 pixels
Display aspect ratio : 2.40:1
Frame rate mode : Constant
Frame rate : 59.880 fps
Original frame rate : 59.940 fps
Color space : YUV
Chroma subsampling : 4:2:0
Bit depth : 8 bits
Scan type : Progressive
Bits/(Pixel*Frame) : 0.125
Stream size : 3.20 GiB (82%)
Title : Tiberiumsun69
Writing library : x264 core 146 r2538 121396c
Encoding settings : cabac=1 / ref=3 / deblock=1:0:0 / analyse=0x3:0x113 / me=umh / subme=9 / psy=1 / psy_rd=1.00:0.10 / mixed_ref=1 / me_range=32 / chroma_me=1 / trellis=2 / 8x8dct=1 / cqm=0 / deadzone=21,11 / fast_pskip=0 / chroma_qp_offset=-3 / threads=12 / lookahead_threads=3 / sliced_threads=0 / nr=0 / decimate=1 / interlaced=0 / bluray_compat=0 / constrained_intra=0 / bframes=16 / b_pyramid=2 / b_adapt=2 / b_bias=0 / direct=3 / weightb=1 / open_gop=0 / weightp=2 / keyint=600 / keyint_min=59 / scenecut=40 / intra_refresh=0 / rc_lookahead=40 / rc=2pass / mbtree=0 / bitrate=3250 / ratetol=1.0 / qcomp=0.60 / qpmin=0 / qpmax=69 / qpstep=4 / cplxblur=20.0 / qblur=0.5 / vbv_maxrate=14000 / vbv_bufsize=14000 / nal_hrd=none / filler=0 / ip_ratio=1.40 / pb_ratio=1.30 / aq=1:1.00
Language : English
Default : Yes
Forced : No
Audio
ID : 2
Format : AC-3
Format/Info : Audio Coding 3
Mode extension : CM (complete main)
Format settings, Endianness : Big
Codec ID : A_AC3
Duration : 2h 24mn
Bit rate mode : Constant
Bit rate : 640 Kbps
Channel(s) : 6 channels
Channel positions : Front: L C R, Side: L R, LFE
Sampling rate : 48.0 KHz
Compression mode : Lossy
Stream size : 662 MiB (16%)
Title : Дубляж
Language : Russian
Default : Yes
Forced : No
Text #1
ID : 3
Format : UTF-8
Codec ID : S_TEXT/UTF8
Codec ID/Info : UTF-8 Plain Text
Title : Полные
Language : Russian
Default : No
Forced : No
Text #2
ID : 4
Format : UTF-8
Codec ID : S_TEXT/UTF8
Codec ID/Info : UTF-8 Plain Text
Title : Полные
Language : English
Default : No
Forced : No
Menu
00:00:00.000 : en:Double O Status
00:09:37.285 : en:Freedom Banking
00:19:30.502 : en:Fancy Footwork
00:25:35.325 : en:You Can Run
00:35:18.241 : en:Embassy Heat
00:39:58.854 : en:Island Retreat
00:45:21.760 : en:Risky Wager
00:57:50.383 : en:After Hours Questioning
01:07:21.620 : en:Miami Showcase
01:17:11.376 : en:Unveiling Operation
01:30:05.400 : en:Manipulative Maneuver
01:38:40.497 : en:Game Of Luck
01:43:28.952 : en:Relationship Briefing
01:54:02.377 : en:Sizing Up The Competition
02:05:44.703 : en:Calling The Shots
02:13:19.032 : en:Cutting Their Losses

Квант милосердия MI

General
Unique ID : 202098296534031586867293265512964144636 (0x980AB7525BFFAD89899E2FEE1605BDFC)
Format : Matroska
Format version : Version 4 / Version 2
File size : 3.45 GiB
Duration : 1h 46mn
Overall bit rate : 4 643 Kbps
Movie name : Tiberiumsun69
Encoded date : UTC 2015-09-16 12:03:08
Writing application : mkvmerge v8.3.0 ('Over the Horizon') 64bit
Writing library : libebml v1.3.1 + libmatroska v1.4.2
Attachements : Cover.png
Video
ID : 1
Format : AVC
Format/Info : Advanced Video Codec
Format profile : High@L4.1
Format settings, CABAC : Yes
Format settings, ReFrames : 4 frames
Codec ID : V_MPEG4/ISO/AVC
Duration : 1h 46mn
Bit rate : 4 000 Kbps
Width : 1 024 pixels
Height : 424 pixels
Display aspect ratio : 2.40:1
Frame rate mode : Constant
Frame rate : 59.880 fps
Original frame rate : 59.940 fps
Color space : YUV
Chroma subsampling : 4:2:0
Bit depth : 8 bits
Scan type : Progressive
Bits/(Pixel*Frame) : 0.154
Stream size : 2.90 GiB (84%)
Title : Tiberiumsun69
Writing library : x264 core 146 r2538 121396c
Encoding settings : cabac=1 / ref=3 / deblock=1:0:0 / analyse=0x3:0x113 / me=umh / subme=9 / psy=1 / psy_rd=1.00:0.10 / mixed_ref=1 / me_range=32 / chroma_me=1 / trellis=2 / 8x8dct=1 / cqm=0 / deadzone=21,11 / fast_pskip=0 / chroma_qp_offset=-3 / threads=12 / lookahead_threads=3 / sliced_threads=0 / nr=0 / decimate=1 / interlaced=0 / bluray_compat=0 / constrained_intra=0 / bframes=16 / b_pyramid=2 / b_adapt=2 / b_bias=0 / direct=3 / weightb=1 / open_gop=0 / weightp=2 / keyint=600 / keyint_min=59 / scenecut=40 / intra_refresh=0 / rc_lookahead=40 / rc=2pass / mbtree=0 / bitrate=4000 / ratetol=1.0 / qcomp=0.60 / qpmin=0 / qpmax=69 / qpstep=4 / cplxblur=20.0 / qblur=0.5 / vbv_maxrate=14000 / vbv_bufsize=14000 / nal_hrd=none / filler=0 / ip_ratio=1.40 / pb_ratio=1.30 / aq=1:1.00
Language : English
Default : Yes
Forced : No
Audio
ID : 2
Format : AC-3
Format/Info : Audio Coding 3
Mode extension : CM (complete main)
Format settings, Endianness : Big
Codec ID : A_AC3
Duration : 1h 46mn
Bit rate mode : Constant
Bit rate : 640 Kbps
Channel(s) : 6 channels
Channel positions : Front: L C R, Side: L R, LFE
Sampling rate : 48.0 KHz
Compression mode : Lossy
Stream size : 486 MiB (14%)
Title : Дубляж
Language : Russian
Default : Yes
Forced : No
Text #1
ID : 3
Format : UTF-8
Codec ID : S_TEXT/UTF8
Codec ID/Info : UTF-8 Plain Text
Title : Форсированные
Language : Russian
Default : Yes
Forced : No
Text #2
ID : 4
Format : UTF-8
Codec ID : S_TEXT/UTF8
Codec ID/Info : UTF-8 Plain Text
Title : Полные
Language : Russian
Default : No
Forced : No
Text #3
ID : 5
Format : UTF-8
Codec ID : S_TEXT/UTF8
Codec ID/Info : UTF-8 Plain Text
Title : Полные
Language : English
Default : No
Forced : No
Menu
00:00:00.000 : en:Chapter 1
00:04:10.124 : en:Chapter 2
00:07:27.530 : en:Chapter 3
00:10:20.536 : en:Chapter 4
00:15:16.832 : en:Chapter 5
00:17:47.649 : en:Chapter 6
00:20:24.306 : en:Chapter 7
00:22:51.369 : en:Chapter 8
00:26:28.420 : en:Chapter 9
00:29:06.369 : en:Chapter 10
00:33:16.911 : en:Chapter 11
00:35:48.104 : en:Chapter 12
00:39:02.131 : en:Chapter 13
00:44:19.156 : en:Chapter 14
00:47:21.797 : en:Chapter 15
00:52:30.897 : en:Chapter 16
00:56:29.010 : en:Chapter 17
01:01:17.173 : en:Chapter 18
01:04:51.012 : en:Chapter 19
01:11:04.802 : en:Chapter 20
01:12:34.433 : en:Chapter 21
01:17:16.423 : en:Chapter 22
01:21:05.694 : en:Chapter 23
01:24:17.719 : en:Chapter 24
01:29:19.937 : en:Chapter 25
01:36:15.519 : en:Chapter 26
01:37:59.248 : en:Chapter 27
01:41:39.134 : en:Chapter 28

Координаты «Скайфолл» MI

General
Unique ID : 212027895709550407646157569103904461695 (0x9F83165BDD5B5FE6AF6FA3AB6685537F)
Format : Matroska
Format version : Version 4 / Version 2
File size : 3.94 GiB
Duration : 2h 23mn
Overall bit rate : 3 941 Kbps
Movie name : Tiberiumsun69
Encoded date : UTC 2015-09-18 10:01:52
Writing application : mkvmerge v8.3.0 ('Over the Horizon') 64bit
Writing library : libebml v1.3.1 + libmatroska v1.4.2
Attachements : Cover.png
Video
ID : 1
Format : AVC
Format/Info : Advanced Video Codec
Format profile : High@L4.1
Format settings, CABAC : Yes
Format settings, ReFrames : 4 frames
Codec ID : V_MPEG4/ISO/AVC
Duration : 2h 23mn
Bit rate : 3 300 Kbps
Width : 1 024 pixels
Height : 424 pixels
Display aspect ratio : 2.40:1
Frame rate mode : Constant
Frame rate : 59.880 fps
Original frame rate : 59.940 fps
Color space : YUV
Chroma subsampling : 4:2:0
Bit depth : 8 bits
Scan type : Progressive
Bits/(Pixel*Frame) : 0.127
Stream size : 3.22 GiB (82%)
Title : Tiberiumsun69
Writing library : x264 core 146 r2538 121396c
Encoding settings : cabac=1 / ref=3 / deblock=1:0:0 / analyse=0x3:0x113 / me=umh / subme=9 / psy=1 / psy_rd=1.00:0.10 / mixed_ref=1 / me_range=32 / chroma_me=1 / trellis=2 / 8x8dct=1 / cqm=0 / deadzone=21,11 / fast_pskip=0 / chroma_qp_offset=-3 / threads=12 / lookahead_threads=3 / sliced_threads=0 / nr=0 / decimate=1 / interlaced=0 / bluray_compat=0 / constrained_intra=0 / bframes=16 / b_pyramid=2 / b_adapt=2 / b_bias=0 / direct=3 / weightb=1 / open_gop=0 / weightp=2 / keyint=600 / keyint_min=59 / scenecut=40 / intra_refresh=0 / rc_lookahead=40 / rc=2pass / mbtree=0 / bitrate=3300 / ratetol=1.0 / qcomp=0.60 / qpmin=0 / qpmax=69 / qpstep=4 / cplxblur=20.0 / qblur=0.5 / vbv_maxrate=14000 / vbv_bufsize=14000 / nal_hrd=none / filler=0 / ip_ratio=1.40 / pb_ratio=1.30 / aq=1:1.00
Language : English
Default : Yes
Forced : No
Audio
ID : 2
Format : AC-3
Format/Info : Audio Coding 3
Mode extension : CM (complete main)
Format settings, Endianness : Big
Codec ID : A_AC3
Duration : 2h 23mn
Bit rate mode : Constant
Bit rate : 640 Kbps
Channel(s) : 6 channels
Channel positions : Front: L C R, Side: L R, LFE
Sampling rate : 48.0 KHz
Compression mode : Lossy
Stream size : 655 MiB (16%)
Title : Дубляж
Language : Russian
Default : Yes
Forced : No
Text #1
ID : 3
Format : UTF-8
Codec ID : S_TEXT/UTF8
Codec ID/Info : UTF-8 Plain Text
Title : Форсированные
Language : Russian
Default : Yes
Forced : No
Text #2
ID : 4
Format : UTF-8
Codec ID : S_TEXT/UTF8
Codec ID/Info : UTF-8 Plain Text
Title : Полные
Language : Russian
Default : No
Forced : No
Text #3
ID : 5
Format : UTF-8
Codec ID : S_TEXT/UTF8
Codec ID/Info : UTF-8 Plain Text
Title : Полные
Language : English
Default : No
Forced : No
Menu
00:00:00.000 : en:en:Opening Credits
00:04:28.477 : en:en:Ghost Ship
00:07:32.452 : en:en:Into the Wreck
00:12:47.392 : en:en:The Keldysh
00:16:47.465 : en:en:The Woman in the Picture
00:21:37.338 : en:en:Old Rose Arrives
00:25:00.290 : en:en:Reflections of the Past
00:29:25.222 : en:en:Back to Titanic
00:35:06.146 : en:en:A Lucky Hand
00:38:27.764 : en:en:Leaving Port
00:41:24.440 : en:en:Cherbourg
00:46:22.905 : en:en:Ode to Titanic
00:50:48.629 : en:en:First Glance
00:54:53.290 : en:en:"You Jump, I Jump"
00:59:38.742 : en:en:An Invitation to Dinner
01:05:14.244 : en:en:The Heart of the Ocean
01:10:16.671 : en:en:Sketches and Stories
01:17:09.750 : en:en:Learning New Things
01:20:55.059 : en:en:Dinner with Jack
01:26:10.374 : en:en:A Real Party
01:31:49.754 : en:en:A Cold Breakfast
01:37:04.527 : en:en:Sunday Prayer
01:40:49.085 : en:en:"They've Got You Trapped"
01:43:45.970 : en:en:Flying
01:45:54.723 : en:en:"That Was the Last Time..."
01:52:10.599 : en:en:The Drawing
01:54:45.796 : en:en:"My Heart Was Pounding"
01:58:13.044 : en:en:"Find Her"
02:02:49.112 : en:en:Two Souls United
02:09:38.646 : en:en:"Iceberg Right Ahead!"
02:14:49.623 : en:en:An Honest Thief
02:17:46.425 : en:en:A Mathematical Certainty

Скриншоты

Авторство группы

[Цитировать]

Есть вся коллекция , даже Казино Рояль неофицальная версия, вот теперь надо заценить и 60 фпс!

[Цитировать]



Показать сообщения:    

Текущее время: 08-Дек 07:08

Часовой пояс: UTC + 3


Вы не можете начинать темы
Вы не можете отвечать на сообщения
Вы не можете редактировать свои сообщения
Вы не можете удалять свои сообщения
Вы не можете голосовать в опросах
Вы не можете прикреплять файлы к сообщениям
Вы не можете скачивать файлы

!ВНИМАНИЕ!
Сайт не предоставляет электронные версии произведений, а занимается лишь коллекционированием и каталогизацией ссылок, присылаемых и публикуемых на форуме нашими читателями. Если вы являетесь правообладателем какого-либо представленного материала и не желаете, чтобы ссылка на него находилась в нашем каталоге, свяжитесь с нами, и мы незамедлительно удалим ее. Файлы для обмена на трекере предоставлены пользователями сайта, и администрация не несет ответственности за их содержание. Просьба не заливать файлы, защищенные авторскими правами, а также файлы нелегального содержания!