[ Сегодня идет свободное скачивание без начисления Download ]


Статистика раздачи
Нет
 
   
 
Top  
 
 
Хроники Нарнии: Покоритель Зари / The Chronicles of Narnia: The Voyage of the Dawn Treader«Назад в волшебство. Назад к надежде. Назад в Нарнию.»
Год выпуска: 2010
Страна: США
Производство: 20th Century Fox Film Corporation, Fox 2000 Pictures, Walden Media
Жанр: фэнтези, приключения, семейный
Режиссер: Майкл Эптид
В ролях: Бен Барнс (Caspian), Скандар Кейнс (Edmund Pevensie), Джорджи Хенли (Lucy Pevensie), Уилл Поултер (Eustace Clarence Scrubb), Гари Свит (Drinian), Тильда Суинтон (The White Witch), Анна Попплуэлл (Susan Pevensie), Уильям Моусли (Peter Pevensie), Лиам Нисон (Aslan, озвучка), Саймон Пегг (Reepicheep, озвучка), Терри Норрис (Lord Bern), Брюс Спенс (Lord Rhoop)
Перевод: 2 x Профессиональный (полное дублирование) + Оригинал
Субтитры: Русские полные, украинские полные, английские полные (softsub SRT)
Описание: Эдмунд, Люси, их кузен Юстас и король Каспиан отплывают на корабле «Покоритель Зари» на поиски друзей отца Каспиана - семи лордов: Ревелиана, Берна, Аргоза, Мавроморна, Октезиана, Рестимара и Рупа, изгнанных во время недолгого правления тирана Мираза.

Релиз от:
Качество: BDRip 1080p
Продолжительность: 01:52:40
Формат: MKV
Формат 3D: Half OverUnder / Вертикальная анаморфная стереопара
Порядок ракурсов: левый ракурс первый
Видео кодек: AVC High@L4.1
Аудио кодек: AC3
Видео: AVC / High@L4.1 / 23,976 fps / 1920х1080p (16:9)/ 18,0 Mbps / 0.362 bit/ pixel
Аудио №1: AC3 / 5.1 ch / 48,0 КГц / 640 kbps / Русский дубляж BD EUR
Аудио №2: AC3 / 5.1 ch / 48,0 КГц / 640 kbps / Украинский дубляж BD EUR
Аудио №3: AC3 / 5.1 ch / 48,0 КГц / 640 kbps / Английский Original BD EUR
Главы: Есть

Роли дублировали

Александр Трофимов (Caspian), Андрей Кошкин (Edmund Pevensie), Александра Матвеева (Lucy Pevensie), Анатолий Петров (Drinian), Ирина Ракшина (The White Witch), Виктория Слуцкая (Susan Pevensie), Глеб Гаврилов (Peter Pevensie), Дмитрий Лагачев (Aslan), Сергей Дьячков (Reepicheep), Юрий Дедович (Lord Bern), Андрей Шамин (Lord Rhoop), Виктор Костецкий (Coriakin)

Media Info

Общее
Уникальный идентификатор : 232239035095163553705772428327116295025 (0xAEB79C773EC57AED914C7A6AD13B4B71)
Полное имя : F:Скачка торрентThe.Chronicles.of.Narnia.The.Voyage.of.the.Dawn.Treader.3D.2010.BDRip1080p.mkv
Формат : Matroska
Версия формата : Version 2
Размер файла : 16,0 Гбайт
Продолжительность : 1 ч. 52 м.
Общий поток : 20,3 Мбит/сек
Название фильма : The Chronicles of Narnia: The Voyage of the Dawn Treader 3D (2010)
Дата кодирования : UTC 2012-10-22 19:09:24
Программа кодирования : mkvmerge v5.8.0 ('No Sleep / Pillow') built on Sep 2 2012 15:37:04
Библиотека кодирования : libebml v1.2.3 + libmatroska v1.3.0
Видео
Идентификатор : 1
Формат : AVC
Формат/Информация : Advanced Video Codec
Профиль формата : High@L4.1
Параметр CABAC формата : Да
Параметр ReFrames формата : 4 кадра
Идентификатор кодека : V_MPEG4/ISO/AVC
Продолжительность : 1 ч. 52 м.
Битрейт : 18,0 Мбит/сек
Ширина : 1920 пикселей
Высота : 1080 пикселей
Соотношение сторон : 16:9
Режим частоты кадров : Постоянный
Частота кадров : 23,976 кадра/сек
Цветовое пространство : YUV
Субдискретизация насыщенности : 4:2:0
Битовая глубина : 8 бит
Тип развёртки : Прогрессивная
Бит/(Пиксели*Кадры) : 0.362
Размер потока : 14,2 Гбайт (89%)
Заголовок : The Chronicles of Narnia: The Voyage of the Dawn Treader 3D (2010)
Библиотека кодирования : x264 core 128 r2216 198a7ea
Настройки программы : cabac=1 / ref=4 / deblock=1:-3:-3 / analyse=0x3:0x113 / me=umh / subme=9 / psy=1 / psy_rd=1.00:0.15 / mixed_ref=1 / me_range=16 / chroma_me=1 / trellis=2 / 8x8dct=1 / cqm=0 / deadzone=21,11 / fast_pskip=1 / chroma_qp_offset=-3 / threads=3 / lookahead_threads=1 / sliced_threads=0 / slices=4 / nr=0 / decimate=1 / interlaced=0 / bluray_compat=0 / constrained_intra=0 / bframes=6 / b_pyramid=2 / b_adapt=2 / b_bias=0 / direct=3 / weightb=1 / open_gop=0 / weightp=2 / keyint=240 / keyint_min=23 / scenecut=40 / intra_refresh=0 / rc_lookahead=60 / rc=crf / mbtree=1 / crf=17.0 / qcomp=0.70 / qpmin=0 / qpmax=69 / qpstep=4 / vbv_maxrate=40000 / vbv_bufsize=40000 / crf_max=0.0 / nal_hrd=none / frame-packing=4 / ip_ratio=1.40 / aq=1:0.70
Язык : English
Default : Да
Forced : Нет
Аудио #1
Идентификатор : 2
Формат : AC-3
Формат/Информация : Audio Coding 3
Расширение режима : CM (complete main)
Параметр Endianness формата : Big
Идентификатор кодека : A_AC3
Продолжительность : 1 ч. 52 м.
Вид битрейта : Постоянный
Битрейт : 640 Кбит/сек
Каналы : 6 каналов
Расположение каналов : Front: L C R, Side: L R, LFE
Частота : 48,0 КГц
Битовая глубина : 16 бит
Метод сжатия : С потерями
Размер потока : 516 Мбайт (3%)
Заголовок : AC3 / 5.1 ch / 640 kbps / Русский дубляж BD
Язык : Russian
Default : Да
Forced : Нет
Аудио #2
Идентификатор : 3
Формат : AC-3
Формат/Информация : Audio Coding 3
Расширение режима : CM (complete main)
Параметр Endianness формата : Big
Идентификатор кодека : A_AC3
Продолжительность : 1 ч. 52 м.
Вид битрейта : Постоянный
Битрейт : 640 Кбит/сек
Каналы : 6 каналов
Расположение каналов : Front: L C R, Side: L R, LFE
Частота : 48,0 КГц
Битовая глубина : 16 бит
Метод сжатия : С потерями
Размер потока : 516 Мбайт (3%)
Заголовок : AC3 / 5.1 ch / 640 kbps / Украинский дубляж
Язык : Ukrainian
Default : Нет
Forced : Нет
Аудио #3
Идентификатор : 4
Формат : AC-3
Формат/Информация : Audio Coding 3
Расширение режима : CM (complete main)
Параметр Endianness формата : Big
Идентификатор кодека : A_AC3
Продолжительность : 1 ч. 52 м.
Вид битрейта : Постоянный
Битрейт : 640 Кбит/сек
Каналы : 6 каналов
Расположение каналов : Front: L C R, Side: L R, LFE
Частота : 48,0 КГц
Битовая глубина : 16 бит
Метод сжатия : С потерями
Размер потока : 516 Мбайт (3%)
Заголовок : AC3 / 5.1 ch / 640 kbps / Original BD
Язык : English
Default : Нет
Forced : Нет
Текст #1
Идентификатор : 5
Формат : UTF-8
Идентификатор кодека : S_TEXT/UTF8
Идентификатор кодека/Информация : UTF-8 Plain Text
Заголовок : Full
Язык : Russian
Default : Нет
Forced : Нет
Текст #2
Идентификатор : 6
Формат : UTF-8
Идентификатор кодека : S_TEXT/UTF8
Идентификатор кодека/Информация : UTF-8 Plain Text
Заголовок : Full
Язык : Ukrainian
Default : Нет
Forced : Нет
Текст #3
Идентификатор : 7
Формат : UTF-8
Идентификатор кодека : S_TEXT/UTF8
Идентификатор кодека/Информация : UTF-8 Plain Text
Заголовок : Full
Язык : English
Default : Нет
Forced : Нет
Меню
00:00:00.000 : :Chapter 01
00:04:28.476 : :Chapter 02
00:07:37.039 : :Chapter 03
00:11:58.259 : :Chapter 04
00:15:22.463 : :Chapter 05
00:20:06.288 : :Chapter 06
00:27:14.507 : :Chapter 07
00:32:20.688 : :Chapter 08
00:36:46.370 : :Chapter 09
00:39:51.597 : :Chapter 10
00:41:56.388 : :Chapter 11
00:45:21.927 : :Chapter 12
00:47:51.493 : :Chapter 13
00:52:52.544 : :Chapter 14
00:58:04.939 : :Chapter 15
01:01:51.332 : :Chapter 16
01:05:43.731 : :Chapter 17
01:08:20.805 : :Chapter 18
01:10:49.912 : :Chapter 19
01:16:55.027 : :Chapter 20
01:20:23.568 : :Chapter 21
01:23:48.314 : :Chapter 22
01:28:23.506 : :Chapter 23
01:32:30.461 : :Chapter 24
01:35:58.753 : :Chapter 25
01:38:07.464 : :Chapter 26
01:40:55.549 : :Chapter 27
01:45:06.967 : :Chapter 28

[Цитировать]

Топик был перенесен из форума Зарубежное кино (HD Video) в форум 3D Кинофильмы


JoKeR



Показать сообщения:    

Текущее время: 10-Дек 11:48

Часовой пояс: UTC + 3


Вы не можете начинать темы
Вы не можете отвечать на сообщения
Вы не можете редактировать свои сообщения
Вы не можете удалять свои сообщения
Вы не можете голосовать в опросах
Вы не можете прикреплять файлы к сообщениям
Вы не можете скачивать файлы

!ВНИМАНИЕ!
Сайт не предоставляет электронные версии произведений, а занимается лишь коллекционированием и каталогизацией ссылок, присылаемых и публикуемых на форуме нашими читателями. Если вы являетесь правообладателем какого-либо представленного материала и не желаете, чтобы ссылка на него находилась в нашем каталоге, свяжитесь с нами, и мы незамедлительно удалим ее. Файлы для обмена на трекере предоставлены пользователями сайта, и администрация не несет ответственности за их содержание. Просьба не заливать файлы, защищенные авторскими правами, а также файлы нелегального содержания!