[ Сегодня идет свободное скачивание без начисления Download ]


Статистика раздачи
Скачал: [ 7 ]
 
   
 
Top  
 
 
ProfIT | PHP7 - что нужно знать уже сейчас (2015) PCRec - Автор (режиссер): Альберт Степанцев
Жанр: Программирование, PHP
Описание:
Меньше месяца остается до выхода самой ожидаемой версии языка PHP - PHP 7, которую также называют PHP Next Generation. Какие улучшения она несёт? К чему готовиться разработчикам на этом языке? Обсудим подробно!
Новый синтаксический анализатор и единый синтаксис. Что сломается в ваших приложениях и какие новые возможности вы получите?
Долгожданный скалярный type hinting и его два режима.
Новые полезные операторы.
Изменения в системе исключений.
И наконец, рассмотрим вопросы производительности в PHP 7.
Семинар будет полезен как профессиональным разработчикам, так и начинающим программистам, интересующимся PHP.
Продолжительность: 01:28:46
Качество видео: PCRec
Видео: AVC/H.264, 1280x688, ~475 kbps
Аудио: AAC, 2 ch, 192 kbps, VBR

Mediainfo:

Общее
Полное имя                               : C:\PHP 7 - что нужно знать уже сейчас - 2015\PHP 7 - что нужно знать уже сейчас - 2015.mp4
Формат                                   : MPEG-4
Профиль формата                          : Base Media / Version 2
Идентификатор кодека                     : mp42 (isom/mp42)
Размер файла                             : 425 Мбайт
Продолжительность                        : 1 ч. 28 м.
Режим общего битрейта                    : Переменный
Общий поток                              : 669 Кбит/сек
Дата кодирования                         : UTC 2015-11-02 19:26:37
Дата пометки                             : UTC 2015-11-02 19:26:37
gsst                                     : 0
gstd                                     : 5326123
gssd                                     : B4A7DD126
gshh                                     : r6---sn-5hn7su7l.googlevideo.com
Видео
Идентификатор                            : 1
Формат                                   : AVC
Формат/Информация                        : Advanced Video Codec
Профиль формата                          : High@L3.1
Параметр CABAC формата                   : Да
Параметр ReFrames формата                : 1 кадр
Параметр GOP формата                     : M=1, N=60
Идентификатор кодека                     : avc1
Идентификатор кодека/Информация          : Advanced Video Coding
Продолжительность                        : 1 ч. 28 м.
Битрейт                                  : 475 Кбит/сек
Максимальный битрейт                     : 3530 Кбит/сек
Ширина                                   : 1280 пикселей
Высота                                   : 688 пикселей
Соотношение сторон                       : 1,85:1
Режим частоты кадров                     : Постоянный
Частота кадров                           : 30,000 кадров/сек
Цветовое пространство                    : YUV
Субдискретизация насыщенности            : 4:2:0
Битовая глубина                          : 8 бит
Тип развёртки                            : Прогрессивная
Бит/(Пиксели*Кадры)                      : 0.018
Размер потока                            : 301 Мбайт (71%)
Дата пометки                             : UTC 2015-11-02 19:27:18
Аудио
Идентификатор                            : 2
Формат                                   : AAC
Формат/Информация                        : Advanced Audio Codec
Профиль формата                          : LC
Идентификатор кодека                     : 40
Продолжительность                        : 1 ч. 28 м.
Вид битрейта                             : Переменный
Битрейт                                  : 192 Кбит/сек
Максимальный битрейт                     : 202 Кбит/сек
Каналы                                   : 2 канала
Расположение каналов                     : Front: L R
Частота                                  : 44,1 КГц
Частота кадров                           : 43,066 кадра/сек (1024 spf)
Метод сжатия                             : С потерями
Размер потока                            : 122 Мбайт (29%)
Заголовок                                : IsoMedia File Produced by Google, 5-11-2011
Язык                                     : English
Дата кодирования                         : UTC 2015-11-02 19:26:55
Дата пометки                             : UTC 2015-11-02 19:27:18
Скриншоты:

[Цитировать]



Показать сообщения:    

Текущее время: 09-Дек 12:37

Часовой пояс: UTC + 3


Вы не можете начинать темы
Вы не можете отвечать на сообщения
Вы не можете редактировать свои сообщения
Вы не можете удалять свои сообщения
Вы не можете голосовать в опросах
Вы не можете прикреплять файлы к сообщениям
Вы не можете скачивать файлы

!ВНИМАНИЕ!
Сайт не предоставляет электронные версии произведений, а занимается лишь коллекционированием и каталогизацией ссылок, присылаемых и публикуемых на форуме нашими читателями. Если вы являетесь правообладателем какого-либо представленного материала и не желаете, чтобы ссылка на него находилась в нашем каталоге, свяжитесь с нами, и мы незамедлительно удалим ее. Файлы для обмена на трекере предоставлены пользователями сайта, и администрация не несет ответственности за их содержание. Просьба не заливать файлы, защищенные авторскими правами, а также файлы нелегального содержания!