[ Сегодня идет свободное скачивание без начисления Download ]


Статистика раздачи
Нет
 
   
 
Top  
 
 
  • Скауты против зомби / Scouts Guide to the Zombie Apocalypse (2015) BDRip-AVC Информация о фильме
    Название: Скауты против зомби
    Оригинальное название: Scouts Guide to the Zombie Apocalypse
    Год выпуска: 2015
    Страна: США
    Жанр: ужасы, комедия-Перевод: Любительский (двухголосый) [ненормативная лексика]; Дубляж - [Звук с CamRip]
    Продолжительность: 01:32:45-Режиссер: Кристофер Лэндон
    В ролях: Тай Шеридан (Ben), Логан Миллер (Carter), Джои Морган (Augie), Сара Дюмон (Denise), Дэвид Кокнер (Scout Leader Rogers), Холстон Сейдж (Kendall Grant), Клорис Личмен (Miss Fielder), Ники Косс (Chloe), Хирам А. Мюррэй (Corporal Reeves), Лукас Гейдж (Travis), Дрю Дродж (Drunk Man), Патрик Шварценеггер (Jeff)-Описание:
    Встречайте самую нелепую команду героев в мире - трое закадычных друзей-бойскаутов и безбашенная официантка. Именно им выпадает миссия остановить зомбиапокалипсис, который уже погрузил в хаос захолустный сонный городок и грозит охватить всю планету. Последняя надежда человечества - скаутские приемы и умения. К борьбе с зомби будь готов! Всегда готов!-Рейтинг:

    MPAA: R - Лицам до 17 лет обязательно присутствие взрослого-Качество: BDRip-AVC
    Формат: MKV
    Видео: AVC, 1056x440 (2.40:1), 2684 kbps, 23,976 fps, 0,241 bpp
    Аудио №1: русский / AC3 / 2.0 / 48 kHz / 192 kbps / 16 bit |Любительский двухголосый|
    Аудио №2: русский / AC3 / 2.0 / 48 kHz / 192 kbps / 16 bit |Дубляж, Звук с CAMRip|
    Аудио №3: английский / AC3 / 5.1 / 48 kHz / 448 kbps / 16 bit
    Навигация по главам: есть
    Семпл-

ОтчетМедиаИнфо

General
Unique ID : 183705587371619934064869944518359884567 (0x8A3468BF2B8E52849FEBA4B57EE3A317)
Complete name : H:Scouts.Guide.To.The.Zombie.Apocalypse.2015.BDRip.AVC.by.R.G.Resident.mkv
Format : Matroska
Format version : Version 4 / Version 2
File size : 2.28 GiB
Duration : 1h 32mn
Overall bit rate : 3 518 Kbps
Movie name : Scouts Guide to the Zombie Apocalypse (2015) BDRip-AVC by R.G. Resident
Encoded date : UTC 2015-12-20 15:09:03
Writing application : mkvmerge v8.6.1 ('Flying') 64bit
Writing library : libebml v1.3.3 + libmatroska v1.4.4
DURATION : 01:32:45.024000000
NUMBER_OF_FRAMES : 173907
NUMBER_OF_BYTES : 311641344
_STATISTICS_WRITING_APP : mkvmerge v8.6.1 ('Flying') 64bit
_STATISTICS_WRITING_DATE_UTC : 2015-12-20 15:09:03
_STATISTICS_TAGS : BPS DURATION NUMBER_OF_FRAMES NUMBER_OF_BYTES
Video
ID : 1
Format : AVC
Format/Info : Advanced Video Codec
Format profile : High@L4.1
Format settings, CABAC : Yes
Format settings, ReFrames : 12 frames
Codec ID : V_MPEG4/ISO/AVC
Duration : 1h 32mn
Bit rate : 2 684 Kbps
Width : 1 056 pixels
Height : 440 pixels
Display aspect ratio : 2.40:1
Frame rate : 23.976 fps
Color space : YUV
Chroma subsampling : 4:2:0
Bit depth : 8 bits
Scan type : Progressive
Bits/(Pixel*Frame) : 0.241
Stream size : 1.69 GiB (74%)
Title : -Lexx-
Writing library : x264 core 146 r2538 121396c
Encoding settings : cabac=1 / ref=12 / deblock=1:-2:-2 / analyse=0x3:0x113 / me=umh / subme=11 / psy=1 / psy_rd=1.00:0.10 / mixed_ref=1 / me_range=32 / chroma_me=1 / trellis=2 / 8x8dct=1 / cqm=0 / deadzone=21,11 / fast_pskip=0 / chroma_qp_offset=-3 / threads=6 / lookahead_threads=2 / sliced_threads=0 / nr=0 / decimate=0 / interlaced=0 / bluray_compat=0 / constrained_intra=0 / bframes=12 / b_pyramid=2 / b_adapt=2 / b_bias=0 / direct=3 / weightb=1 / open_gop=0 / weightp=2 / keyint=240 / keyint_min=23 / scenecut=40 / intra_refresh=0 / rc=2pass / mbtree=0 / bitrate=2684 / ratetol=1.0 / qcomp=0.60 / qpmin=0 / qpmax=69 / qpstep=4 / cplxblur=20.0 / qblur=0.5 / ip_ratio=1.40 / pb_ratio=1.30 / aq=1:1.00
Language : English
Default : Yes
Forced : No
DURATION : 01:32:44.976000000
NUMBER_OF_FRAMES : 133426
NUMBER_OF_BYTES : 1866938142
_STATISTICS_WRITING_APP : mkvmerge v8.6.1 ('Flying') 64bit
_STATISTICS_WRITING_DATE_UTC : 2015-12-20 15:09:03
_STATISTICS_TAGS : BPS DURATION NUMBER_OF_FRAMES NUMBER_OF_BYTES
Audio #1
ID : 2
Format : AC-3
Format/Info : Audio Coding 3
Mode extension : CM (complete main)
Codec ID : A_AC3
Duration : 1h 32mn
Bit rate mode : Constant
Bit rate : 192 Kbps
Channel(s) : 2 channels
Channel positions : Front: L R
Sampling rate : 48.0 KHz
Bit depth : 16 bits
Compression mode : Lossy
Stream size : 127 MiB (5%)
Title : DVO
Language : Russian
Default : Yes
Forced : No
Audio #2
ID : 3
Format : AC-3
Format/Info : Audio Coding 3
Mode extension : CM (complete main)
Codec ID : A_AC3
Duration : 1h 32mn
Bit rate mode : Constant
Bit rate : 192 Kbps
Channel(s) : 2 channels
Channel positions : Front: L R
Sampling rate : 48.0 KHz
Bit depth : 16 bits
Compression mode : Lossy
Stream size : 127 MiB (5%)
Title : Дубляж, звук с CAMRip
Language : Russian
Default : No
Forced : No
Audio #3
ID : 4
Format : AC-3
Format/Info : Audio Coding 3
Mode extension : CM (complete main)
Codec ID : A_AC3
Duration : 1h 32mn
Bit rate mode : Constant
Bit rate : 448 Kbps
Channel(s) : 6 channels
Channel positions : Front: L C R, Side: L R, LFE
Sampling rate : 48.0 KHz
Bit depth : 16 bits
Compression mode : Lossy
Stream size : 297 MiB (13%)
Title : Оригинал
Language : English
Default : No
Forced : No
Menu
00:00:00.000 : en:Chapter 01
00:06:45.154 : en:Chapter 02
00:14:53.767 : en:Chapter 03
00:21:31.164 : en:Chapter 04
00:27:01.953 : en:Chapter 05
00:31:30.597 : en:Chapter 06
00:39:25.237 : en:Chapter 07
00:45:57.838 : en:Chapter 08
00:51:13.987 : en:Chapter 09
00:57:32.198 : en:Chapter 10
01:06:08.130 : en:Chapter 11
01:12:08.949 : en:Chapter 12
01:20:00.003 : en:Chapter 13
01:26:04.534 : en:Chapter 14

Скриншоты

[Цитировать]



Показать сообщения:    

Текущее время: 10-Дек 13:43

Часовой пояс: UTC + 3


Вы не можете начинать темы
Вы не можете отвечать на сообщения
Вы не можете редактировать свои сообщения
Вы не можете удалять свои сообщения
Вы не можете голосовать в опросах
Вы не можете прикреплять файлы к сообщениям
Вы не можете скачивать файлы

!ВНИМАНИЕ!
Сайт не предоставляет электронные версии произведений, а занимается лишь коллекционированием и каталогизацией ссылок, присылаемых и публикуемых на форуме нашими читателями. Если вы являетесь правообладателем какого-либо представленного материала и не желаете, чтобы ссылка на него находилась в нашем каталоге, свяжитесь с нами, и мы незамедлительно удалим ее. Файлы для обмена на трекере предоставлены пользователями сайта, и администрация не несет ответственности за их содержание. Просьба не заливать файлы, защищенные авторскими правами, а также файлы нелегального содержания!