[ Сегодня идет свободное скачивание без начисления Download ]


Статистика раздачи
Нет
 
   
 
Top  
 
 
Название: Убийца
Оригинальное название: Sicario
Год выпуска: 2015
Жанр: Боевик, триллер, драма, криминал, детектив
Выпущено: США, Black Label Media, Lionsgate, Thunder Road
Режиссер: Дени Вильнёв
В ролях: Эмили Блант, Бенисио Дель Торо, Джош Бролин, Виктор Гарбер, Джон Бернтал, Дэниэл Калуя, Джеффри Донован, Рауль Трухильо, Хулио Седильо, Хэнк Роджерсон, Бернардо Галлегос, Максимилиано Эрнандес, Кевин Уиггинс, Эдгар Арреола, Ким Нив, Хесус Неварес-Кастилло, Дилан Кенин, Джон Трехо, Марти Линдси, Алекс Найт
О фильме: На американо-мексиканской границе женщина-полицейский сопровождает двух рейнджеров, которые преследуют наркобарона. Она не подозревает, что по ту сторону границы есть тайное место, где не действуют никакие законы и царят насилие и разврат.

Качество: BDRip 720p
Видео: MPEG-4 AVC, 4516 Кбит/с, 1280x536
Аудио#1: Русский (AC3, 6 ch, 448 Кбит/с) ненорматив
Аудио#2: Русский (AC3, 6 ch, 448 Кбит/с) цензурный
Аудио#3: Английский (AC3, 6 ch, 640 Кбит/с)
Продолжительность: 02:01:20
Перевод: Авторский [Дмитрий Есарев]
Внимание, в релизе две дороги с переводом Есарева, первая с ненормативом, вторая без!

Скриншоты

MediaInfo

General
Unique ID : 237705101440399695432162855831324208312 (0xB2D45657F78166B18F4B4CAFD3CE2CB8)
Complete name : D:Видео 2Sicario.2015.BDRip.720p.AVO.Esarev.mkv
Format : Matroska
Format version : Version 4 / Version 2
File size : 5.13 GiB
Duration : 2h 1mn
Overall bit rate : 6 049 Kbps
Encoded date : UTC 2015-12-20 06:47:10
Writing application : mkvmerge v8.3.0 ('Over the Horizon') 64bit
Writing library : libebml v1.3.1 + libmatroska v1.4.2
DURATION : 02:01:20.352000000
NUMBER_OF_FRAMES : 227511
NUMBER_OF_BYTES : 407699712
_STATISTICS_WRITING_APP : mkvmerge v8.3.0 ('Over the Horizon') 64bit
_STATISTICS_WRITING_DATE_UTC : 2015-12-20 06:47:10
_STATISTICS_TAGS : BPS DURATION NUMBER_OF_FRAMES NUMBER_OF_BYTES
Video
ID : 1
Format : AVC
Format/Info : Advanced Video Codec
Format profile : High@L4.1
Format settings, CABAC : Yes
Format settings, ReFrames : 5 frames
Codec ID : V_MPEG4/ISO/AVC
Duration : 2h 1mn
Bit rate : 4 516 Kbps
Width : 1 280 pixels
Height : 536 pixels
Display aspect ratio : 2.40:1
Frame rate mode : Constant
Frame rate : 23.976 fps
Color space : YUV
Chroma subsampling : 4:2:0
Bit depth : 8 bits
Scan type : Progressive
Bits/(Pixel*Frame) : 0.275
Stream size : 3.72 GiB (73%)
Writing library : x264 core 148 r2638 7599210
Encoding settings : cabac=1 / ref=5 / deblock=1:0:0 / analyse=0x3:0x133 / me=umh / subme=7 / psy=1 / psy_rd=1.00:0.00 / mixed_ref=1 / me_range=16 / chroma_me=1 / trellis=1 / 8x8dct=1 / cqm=0 / deadzone=21,11 / fast_pskip=0 / chroma_qp_offset=-2 / threads=12 / lookahead_threads=2 / sliced_threads=0 / nr=0 / decimate=1 / interlaced=0 / bluray_compat=0 / constrained_intra=0 / bframes=3 / b_pyramid=2 / b_adapt=1 / b_bias=0 / direct=1 / weightb=1 / open_gop=0 / weightp=2 / keyint=250 / keyint_min=23 / scenecut=40 / intra_refresh=0 / rc_lookahead=40 / rc=2pass / mbtree=1 / bitrate=4516 / ratetol=1.0 / qcomp=0.60 / qpmin=0 / qpmax=69 / qpstep=4 / cplxblur=20.0 / qblur=0.5 / ip_ratio=1.40 / aq=1:1.00
Language : English
Default : Yes
Forced : No
DURATION : 02:01:20.243000000
NUMBER_OF_FRAMES : 174551
NUMBER_OF_BYTES : 4105318949
_STATISTICS_WRITING_APP : mkvmerge v8.3.0 ('Over the Horizon') 64bit
_STATISTICS_WRITING_DATE_UTC : 2015-12-20 06:47:10
_STATISTICS_TAGS : BPS DURATION NUMBER_OF_FRAMES NUMBER_OF_BYTES
Audio #1
ID : 2
Format : AC-3
Format/Info : Audio Coding 3
Mode extension : CM (complete main)
Format settings, Endianness : Big
Codec ID : A_AC3
Duration : 2h 1mn
Bit rate mode : Constant
Bit rate : 448 Kbps
Channel(s) : 6 channels
Channel positions : Front: L C R, Side: L R, LFE
Sampling rate : 48.0 KHz
Bit depth : 16 bits
Compression mode : Lossy
Stream size : 389 MiB (7%)
Title : Д. Есарев (ненорматив)
Language : Russian
Default : Yes
Forced : No
Audio #2
ID : 3
Format : AC-3
Format/Info : Audio Coding 3
Mode extension : CM (complete main)
Format settings, Endianness : Big
Codec ID : A_AC3
Duration : 2h 1mn
Bit rate mode : Constant
Bit rate : 448 Kbps
Channel(s) : 6 channels
Channel positions : Front: L C R, Side: L R, LFE
Sampling rate : 48.0 KHz
Bit depth : 16 bits
Compression mode : Lossy
Stream size : 389 MiB (7%)
Title : Д. Есарев (цензурный)
Language : Russian
Default : No
Forced : No
Audio #3
ID : 4
Format : AC-3
Format/Info : Audio Coding 3
Mode extension : CM (complete main)
Format settings, Endianness : Big
Codec ID : A_AC3
Duration : 2h 1mn
Bit rate mode : Constant
Bit rate : 640 Kbps
Channel(s) : 6 channels
Channel positions : Front: L C R, Side: L R, LFE
Sampling rate : 48.0 KHz
Bit depth : 16 bits
Compression mode : Lossy
Stream size : 555 MiB (11%)
Language : English
Default : No
Forced : No
Menu
00:00:00.000 : en:00:00:00.000
00:07:14.351 : en:00:07:14.351
00:12:55.108 : en:00:12:55.108
00:20:04.370 : en:00:20:04.370
00:25:24.815 : en:00:25:24.815
00:32:11.596 : en:00:32:11.596
00:39:24.821 : en:00:39:24.821
00:46:15.314 : en:00:46:15.314
00:53:24.576 : en:00:53:24.576
01:01:40.322 : en:01:01:40.322
01:10:49.120 : en:01:10:49.120
01:18:02.887 : en:01:18:02.887
01:30:59.371 : en:01:30:59.371
01:36:57.770 : en:01:36:57.770
01:47:42.039 : en:01:47:42.039
01:54:12.804 : en:01:54:12.804
Релиз от:

[Цитировать]



Показать сообщения:    

Текущее время: 07-Дек 13:35

Часовой пояс: UTC + 3


Вы не можете начинать темы
Вы не можете отвечать на сообщения
Вы не можете редактировать свои сообщения
Вы не можете удалять свои сообщения
Вы не можете голосовать в опросах
Вы не можете прикреплять файлы к сообщениям
Вы не можете скачивать файлы

!ВНИМАНИЕ!
Сайт не предоставляет электронные версии произведений, а занимается лишь коллекционированием и каталогизацией ссылок, присылаемых и публикуемых на форуме нашими читателями. Если вы являетесь правообладателем какого-либо представленного материала и не желаете, чтобы ссылка на него находилась в нашем каталоге, свяжитесь с нами, и мы незамедлительно удалим ее. Файлы для обмена на трекере предоставлены пользователями сайта, и администрация не несет ответственности за их содержание. Просьба не заливать файлы, защищенные авторскими правами, а также файлы нелегального содержания!