[ Сегодня идет свободное скачивание без начисления Download ]


Статистика раздачи
Нет
 
   
 
Top  
 
 
Информация о фильме
Название: 12 раундов 3
Оригинальное название: 12 Rounds 3: Lockdown
Год выхода: 2015
Жанр: Боевик, триллер
Режиссер: Стивен Рейнольдс
В ролях: Джонатан Гуд, Роджер Р. Кросс, Дэниэл Кадмор, Локлин Манро, Тай Олссон, Сара Смит, Ребекка Маршалл, Кирби Морроу
О фильме:
Полицейский, который вернулся на службу оправившись от огнестрельного ранения, попадаёт опять в переплёт. Он обнаруживает улики незаконной деятельности своего бывшего партнера. Коррумпированные копы не остановятся ни перед чем, чтобы заполучить доказательства

Страна: США
Студия: WWE Studios
Продолжительность: 01:30:11
Перевод: Одноголосый любительский (Петр Титов)
Файл
Кодек: х264
Качество: BDRip 720p Исходник: BDRemux 1080p
Видео: 1280x720 (16:9) at 23.976 fps, AVC at 6641 kbps avg, 0.301 bit/pixel
Аудио 1: Русский (AC3, 2 ch, 192 Кбит/с, 44,1 КГц, 16 бит)
Аудио 2: Aнглийский (AC3, 6 ch, 384 Кбит/с, 48 КГц, 16 бит)
Субтитры: Английские
Семпл

MediaInfo

Log
x264 [info]: frame I:846 Avg QP:14.61 size:114879
x264 [info]: frame P:29852 Avg QP:15.49 size: 59103
x264 [info]: frame B:98985 Avg QP:18.22 size: 27561
x264 [info]: consecutive B-frames: 3.1% 4.4% 10.7% 13.3% 15.9% 40.6% 5.2% 3.6% 3.3%
Общее
Уникальный идентификатор : 215967622648630321553394788287321173014 (0xA279D9E4D103299C8F74945EBEE76C16)
Полное имя : S:Фильмы12 раундов 3. 2015. BDRip 720p (AleksSin).mkv
Формат : Matroska
Версия формата : Version 4 / Version 2
Размер файла : 4,64 Гбайт
Продолжительность : 1 ч. 30 м.
Общий поток : 7364 Кбит/сек
Дата кодирования : UTC 2015-12-21 08:56:34
Программа кодирования : mkvmerge v8.1.0 ('Psychedelic Postcard') 32bit
Библиотека кодирования : libebml v1.3.1 + libmatroska v1.4.2
DURATION : 01:21:45.608000000
NUMBER_OF_FRAMES : 814
NUMBER_OF_BYTES : 22336
_STATISTICS_WRITING_APP : mkvmerge v8.1.0 ('Psychedelic Postcard') 32bit
_STATISTICS_WRITING_DATE_UTC : 2015-12-21 08:56:34
_STATISTICS_TAGS : BPS DURATION NUMBER_OF_FRAMES NUMBER_OF_BYTES
Видео
Идентификатор : 1
Формат : AVC
Формат/Информация : Advanced Video Codec
Профиль формата : High@L4.1
Параметр CABAC формата : Да
Параметр ReFrames формата : 9 кадров
Идентификатор кодека : V_MPEG4/ISO/AVC
Продолжительность : 1 ч. 30 м.
Битрейт : 6641 Кбит/сек
Ширина : 1280 пикселей
Высота : 720 пикселей
Соотношение сторон : 16:9
Режим частоты кадров : Постоянный
Частота кадров : 23,976 кадра/сек
Цветовое пространство : YUV
Субдискретизация насыщенности : 4:2:0
Битовая глубина : 8 бит
Тип развёртки : Прогрессивная
Бит/(Пиксели*Кадры) : 0.301
Размер потока : 4,18 Гбайт (90%)
Библиотека кодирования : x264 core 148 r2638 7599210
Настройки программы : cabac=1 / ref=9 / deblock=1:-3:-3 / analyse=0x3:0x113 / me=umh / subme=11 / psy=1 / psy_rd=1.00:0.00 / mixed_ref=1 / me_range=32 / chroma_me=1 / trellis=2 / 8x8dct=1 / cqm=0 / deadzone=21,11 / fast_pskip=0 / chroma_qp_offset=-1 / threads=12 / lookahead_threads=2 / sliced_threads=0 / nr=0 / decimate=1 / interlaced=0 / bluray_compat=0 / constrained_intra=0 / bframes=8 / b_pyramid=2 / b_adapt=2 / b_bias=0 / direct=1 / weightb=1 / open_gop=0 / weightp=2 / keyint=250 / keyint_min=23 / scenecut=40 / intra_refresh=0 / rc=crf / mbtree=0 / crf=18.8 / qcomp=0.60 / qpmin=0 / qpmax=69 / qpstep=4 / ip_ratio=1.40 / pb_ratio=1.30 / aq=3:1.00
Default : Да
Forced : Нет
Аудио #1
Идентификатор : 2
Формат : AC-3
Формат/Информация : Audio Coding 3
Расширение режима : CM (complete main)
Параметр Endianness формата : Big
Идентификатор кодека : A_AC3
Продолжительность : 1 ч. 30 м.
Вид битрейта : Постоянный
Битрейт : 192 Кбит/сек
Каналы : 2 канала
Расположение каналов : Front: L R
Частота : 44,1 КГц
Битовая глубина : 16 бит
Метод сжатия : С потерями
Размер потока : 124 Мбайт (3%)
Default : Да
Forced : Нет
Аудио #2
Идентификатор : 3
Формат : AC-3
Формат/Информация : Audio Coding 3
Расширение режима : CM (complete main)
Параметр Endianness формата : Big
Идентификатор кодека : A_AC3
Продолжительность : 1 ч. 30 м.
Вид битрейта : Постоянный
Битрейт : 384 Кбит/сек
Каналы : 6 каналов
Расположение каналов : Front: L C R, Side: L R, LFE
Частота : 48,0 КГц
Битовая глубина : 16 бит
Метод сжатия : С потерями
Размер потока : 248 Мбайт (5%)
Default : Нет
Forced : Нет
Текст #1
Идентификатор : 4
Формат : UTF-8
Идентификатор кодека : S_TEXT/UTF8
Идентификатор кодека/Информация : UTF-8 Plain Text
Default : Да
Forced : Нет
Текст #2
Идентификатор : 5
Формат : UTF-8
Идентификатор кодека : S_TEXT/UTF8
Идентификатор кодека/Информация : UTF-8 Plain Text
Default : Нет
Forced : Нет
Меню
00:00:00.000 : en:
00:06:46.656 : en:
00:11:32.024 : en:
00:26:02.060 : en:
00:32:24.609 : en:
00:41:57.348 : en:
00:53:22.032 : en: - :(
01:01:29.894 : en:
01:06:49.463 : en:
01:12:58.290 : en:
01:18:59.776 : en:
01:24:07.917 : en:

Скриншоты

[Цитировать]



Показать сообщения:    

Текущее время: 09-Дек 01:11

Часовой пояс: UTC + 3


Вы не можете начинать темы
Вы не можете отвечать на сообщения
Вы не можете редактировать свои сообщения
Вы не можете удалять свои сообщения
Вы не можете голосовать в опросах
Вы не можете прикреплять файлы к сообщениям
Вы не можете скачивать файлы

!ВНИМАНИЕ!
Сайт не предоставляет электронные версии произведений, а занимается лишь коллекционированием и каталогизацией ссылок, присылаемых и публикуемых на форуме нашими читателями. Если вы являетесь правообладателем какого-либо представленного материала и не желаете, чтобы ссылка на него находилась в нашем каталоге, свяжитесь с нами, и мы незамедлительно удалим ее. Файлы для обмена на трекере предоставлены пользователями сайта, и администрация не несет ответственности за их содержание. Просьба не заливать файлы, защищенные авторскими правами, а также файлы нелегального содержания!