[ Сегодня идет свободное скачивание без начисления Download ]


Статистика раздачи
Нет
 
   
 
Top  
 
 
Похищение / Captivity Год выпуска: 2006
Страна: Россия, США
Производство: Captivity Productions LLC
Жанр: ужасы, триллер, криминал
Режиссер: Роланд Жоффе
В ролях: Элиша Катберт, Дэниэл Гиллис, Прюитт Тэйлор Винс, Майкл Харни, Лас Алонсо, Мэгги Дэймон, Chrysta Olson, Карл Паоли, Трент Броин
Перевод: Профессиональный (полное дублирование)
Субтитры:Нет
Описание: На вечеринке популярная фотомодель Джениффер Три неожиданно теряет сознание после выпитого коктейля. Она оказывается в подвале частного жилого дома, понимает, что похищена.
Вскоре за стеклянной стеной, разделяющей комнаты, она обнаруживает также плененного молодого человека — водителя Гарри. Молодые люди общаются через стекло, надеясь на побег. С целью избежать судьбы предыдущих жертв маньяка, они пробуют бежать, но каждый раз попадают в искусно расставленную ловушку.

Качество: DVDRip (исходник DVD 9[
Продолжительность: 01:32:00
Формат: AVI
Видео кодек: XviD
Аудио кодек: MP3
Видео: 688x288 (2.40:1), 25,000 fps, XviD build 73 ~963 kbps avg, 0.194 bit/pixel
Аудио: 48 kHz, MPEG Layer 3, 2 ch, ~160.00 kbps avg

МедиаИнфо

General
Complete name : D:Captivity.DVDRip.2006.by.ALGORITM.avi
Format : AVI
Format/Info : Audio Video Interleave
File size : 745 MiB
Duration : 1h 32mn
Overall bit rate : 1 133 Kbps
Writing application : VirtualDubMod 1.5.10.2 (build 2542/release)
Writing library : VirtualDubMod build 2542/release
Video
ID : 0
Format : MPEG-4 Visual
Format profile : Advanced [email protected]
Format settings, BVOP : 2
Format settings, QPel : No
Format settings, GMC : No warppoints
Format settings, Matrix : Custom
Codec ID : XVID
Codec ID/Hint : XviD
Duration : 1h 32mn
Bit rate : 963 Kbps
Width : 688 pixels
Height : 288 pixels
Display aspect ratio : 2.40:1
Frame rate : 25.000 fps
Color space : YUV
Chroma subsampling : 4:2:0
Bit depth : 8 bits
Scan type : Progressive
Compression mode : Lossy
Bits/(Pixel*Frame) : 0.194
Stream size : 634 MiB (85%)
Writing library : XviD 73
Audio
ID : 1
Format : MPEG Audio
Format version : Version 1
Format profile : Layer 3
Codec ID : 55
Codec ID/Hint : MP3
Duration : 1h 32mn
Bit rate mode : Constant
Bit rate : 160 Kbps
Channel(s) : 2 channels
Sampling rate : 48.0 KHz
Compression mode : Lossy
Stream size : 105 MiB (14%)
Alignment : Aligned on interleaves
Interleave, duration : 40 ms (1.00 video frame)
Interleave, preload duratio : 504 ms
Writing library : LAME3.99r
Encoding settings : -m s -V 4 -q 0 -lowpass 17.5 -b 160

Скриншоты

[Цитировать]



Показать сообщения:    

Текущее время: 04-Дек 21:25

Часовой пояс: UTC + 3


Вы не можете начинать темы
Вы не можете отвечать на сообщения
Вы не можете редактировать свои сообщения
Вы не можете удалять свои сообщения
Вы не можете голосовать в опросах
Вы не можете прикреплять файлы к сообщениям
Вы не можете скачивать файлы

!ВНИМАНИЕ!
Сайт не предоставляет электронные версии произведений, а занимается лишь коллекционированием и каталогизацией ссылок, присылаемых и публикуемых на форуме нашими читателями. Если вы являетесь правообладателем какого-либо представленного материала и не желаете, чтобы ссылка на него находилась в нашем каталоге, свяжитесь с нами, и мы незамедлительно удалим ее. Файлы для обмена на трекере предоставлены пользователями сайта, и администрация не несет ответственности за их содержание. Просьба не заливать файлы, защищенные авторскими правами, а также файлы нелегального содержания!