[ Сегодня идет свободное скачивание без начисления Download ]


Статистика раздачи
Нет
 
   
 
Top  
 
 
Плохие парни / Bad Boys (1995) Информация о фильме
Название: Плохие парни
Оригинальное: Bad Boys
Год выхода: 1995
Выпущено: Don Simpson / Jerry Bruckheimer Films
Страна: США
Жанр: Боевик, триллер, драма, комедия
Продолжительность: 01:58:50
Перевод: Дублированный (BD CEE)
Режиссер: Майкл Бэй
В ролях: Уилл Смит, Мартин Лоуренс, Теа Леони, Лиза Бойл, Майкл Талиферро, Эммануель Ксереб, Чеки Карио, Марк Маколей, Ральф Гонсалес, Вик Манни, Фрэнк Джон Хьюз, Майк Киртон, Уилл Никербоксер, Тереза Рэндл, Тиффани Сэмюэлс, Кори Ходжес, Скотт Камбербэтч, Анна Левайн-Томпсон, Джои Романо, Сэм Эйерс, Джо Пантолиано
-Сюжет фильма
Они - полная противоположность друг друга. Один из них - примерный семьянин и не имеет состояния, другой богат и пользуется всеми благами холостяцкой жизни. Помимо дружбы их объединяет работа в полиции.
Их новое задание - поймать жестокого преступника, укравшего наркотики с секретного склада, а также спасти девушку, которая случайно оказалась на его пути. Но для этого друзьям придется поменяться местами...
-Файл
Кодек: x264
Формат: MKV
Качество: BDRip 720p (Источник: HDClub / 4K Remastered 1080p BDRemux)
Видео: MPEG-4 AVC 1280x692 pix, 23.976 fps, 8072 kbps, 0.380 Bits/Pixel
Аудио I: Dolby Digital 5.1 ch, 48 kHz, 640 kbps (Rus)
Аудио II: Dolby Digital 5.1 ch, 48 kHz, 640 kbps (Eng)
Субтитры: SRT Русские, Английские (полные, SDH)
Меню: Сохранены оригинальные чаптеры Blu-ray

MI & x264

x264 [info]: frame I:1369 Avg QP:15.94 size:151426
x264 [info]: frame P:36598 Avg QP:18.65 size: 74985
x264 [info]: frame B:132985 Avg QP:21.00 size: 31896
x264 [info]: consecutive B-frames: 2.7% 2.6% 5.4% 18.8% 17.4% 35.6% 8.4% 7.3% 1.4% 0.4%-General
Unique ID : 250304988648574919059218762855072362033 (0xBC4EFCBED38ED7219701DCEB5D0F6E31)
Format : Matroska
Format version : Version 2
File size : 7.76 GiB
Duration : 1h 58mn
Overall bit rate : 9 353 Kbps
Movie name : Плохие парни (1995) BDRip (720p)
Encoded date : UTC 2015-12-19 15:52:06
Writing application : mkvmerge v5.8.0 ('No Sleep / Pillow') built on Sep 2 2012 15:37:04
Writing library : libebml v1.2.3 + libmatroska v1.3.0
Video
ID : 1
Format : AVC
Format/Info : Advanced Video Codec
Format profile : High@L4.1
Format settings, CABAC : Yes
Format settings, ReFrames : 9 frames
Codec ID : V_MPEG4/ISO/AVC
Duration : 1h 58mn
Bit rate : 8 072 Kbps
Width : 1 280 pixels
Height : 692 pixels
Display aspect ratio : 1.85:1
Frame rate mode : Constant
Frame rate : 23.976 fps
Color space : YUV
Chroma subsampling : 4:2:0
Bit depth : 8 bits
Scan type : Progressive
Bits/(Pixel*Frame) : 0.380
Stream size : 6.55 GiB (84%)
Title : Release by Alex260680
Writing library : x264 core 148 r2597 e86f3a1
Encoding settings : cabac=1 / ref=9 / deblock=1:-2:-2 / analyse=0x3:0x133 / me=umh / subme=11 / psy=1 / psy_rd=1.00:0.00 / mixed_ref=1 / me_range=32 / chroma_me=1 / trellis=2 / 8x8dct=1 / cqm=0 / deadzone=21,11 / fast_pskip=0 / chroma_qp_offset=-2 / threads=6 / lookahead_threads=1 / sliced_threads=0 / nr=0 / decimate=0 / interlaced=0 / bluray_compat=0 / constrained_intra=0 / bframes=9 / b_pyramid=2 / b_adapt=2 / b_bias=0 / direct=3 / weightb=1 / open_gop=0 / weightp=2 / keyint=240 / keyint_min=23 / scenecut=40 / intra_refresh=0 / rc=full2pass / mbtree=0 / bitrate=8072 / ratetol=1.0 / qcomp=0.60 / qpmin=0 / qpmax=69 / qpstep=4 / cplxblur=20.0 / qblur=0.5 / ip_ratio=1.40 / pb_ratio=1.30 / aq=1:0.75
Language : English
Default : Yes
Forced : No
Audio #1
ID : 2
Format : AC-3
Format/Info : Audio Coding 3
Mode extension : CM (complete main)
Format settings, Endianness : Big
Codec ID : A_AC3
Duration : 1h 58mn
Bit rate mode : Constant
Bit rate : 640 Kbps
Channel(s) : 6 channels
Channel positions : Front: L C R, Side: L R, LFE
Sampling rate : 48.0 KHz
Bit depth : 16 bits
Compression mode : Lossy
Stream size : 544 MiB (7%)
Title : DUB
Language : Russian
Default : Yes
Forced : No
Audio #2
ID : 3
Format : AC-3
Format/Info : Audio Coding 3
Mode extension : CM (complete main)
Format settings, Endianness : Big
Codec ID : A_AC3
Duration : 1h 58mn
Bit rate mode : Constant
Bit rate : 640 Kbps
Channel(s) : 6 channels
Channel positions : Front: L C R, Side: L R, LFE
Sampling rate : 48.0 KHz
Bit depth : 16 bits
Compression mode : Lossy
Stream size : 544 MiB (7%)
Title : Original
Language : English
Default : No
Forced : No
Text #1
ID : 4
Format : UTF-8
Codec ID : S_TEXT/UTF8
Codec ID/Info : UTF-8 Plain Text
Title : Full
Language : Russian
Default : No
Forced : No
Text #2
ID : 5
Format : UTF-8
Codec ID : S_TEXT/UTF8
Codec ID/Info : UTF-8 Plain Text
Title : Full
Language : English
Default : No
Forced : No
Text #3
ID : 6
Format : UTF-8
Codec ID : S_TEXT/UTF8
Codec ID/Info : UTF-8 Plain Text
Title : SDH
Language : English
Default : No
Forced : No
Menu
00:00:00.000 : en:Start
00:05:07.473 : en:Heroin Robbery
00:12:01.971 : en:Peeking & Entering
00:17:38.098 : en:Rich Cop, Poor Cop
00:23:33.203 : en:Eddie's Surprise Party
00:31:31.764 : en:Julie's Escape
00:41:09.133 : en:Two Conversations
00:47:35.310 : en:At Lois'
00:54:37.357 : en:Julie Asks for Mike
01:04:05.675 : en:In Julie's Apartment
01:13:49.800 : en:Making Their Getaway
01:20:21.483 : en:Mike's Place
01:27:58.523 : en:Real Bad Headache
01:34:54.271 : en:Problems in the Lab
01:43:09.308 : en:Julie Meets "Marcus"
01:50:51.353 : en:In the Men's Room

Награды

Премия канала «MTV», 1996 год
Номинации:
- Лучший экранный дуэт (Уилл Смит, Мартин Лоуренс)
- Лучшая экшн-сцена

[Цитировать]



Показать сообщения:    

Текущее время: 09-Дек 12:43

Часовой пояс: UTC + 3


Вы не можете начинать темы
Вы не можете отвечать на сообщения
Вы не можете редактировать свои сообщения
Вы не можете удалять свои сообщения
Вы не можете голосовать в опросах
Вы не можете прикреплять файлы к сообщениям
Вы не можете скачивать файлы

!ВНИМАНИЕ!
Сайт не предоставляет электронные версии произведений, а занимается лишь коллекционированием и каталогизацией ссылок, присылаемых и публикуемых на форуме нашими читателями. Если вы являетесь правообладателем какого-либо представленного материала и не желаете, чтобы ссылка на него находилась в нашем каталоге, свяжитесь с нами, и мы незамедлительно удалим ее. Файлы для обмена на трекере предоставлены пользователями сайта, и администрация не несет ответственности за их содержание. Просьба не заливать файлы, защищенные авторскими правами, а также файлы нелегального содержания!