[ Сегодня идет свободное скачивание без начисления Download ]


Статистика раздачи
Нет
 
   
 
Top  
 
 
15 минут славы / 15 Minutes
«...на них каждый имеет право»
Русское название: 15 минут славы
Оригинальное название: 15 Minutes
Год выпуска: 2001
Жанр: боевик, триллер, драма, криминал
Выпущено: США, Германия
Режиссер: Джон Херцфелд
В ролях: Роберт Де Ниро , Эдвард Бёрнс , Келси Грэммер , Эйвери Брукс , Мелина Канакаридис , Карел Роден , Олег Тактаров , Вера Фармига , Джон ДиРеста , Джеймс Хэнди , Дариус МакКрэри , Брюс Катлер
Перевод: Дублированный, Профессиональный многоголосый, Профессиональный двухголосый

Сюжет фильма:
Эмиль и Олег, приехав в Нью-Йорк по своим бандитским делам, воруют видеокамеру, и начинают снимать свои криминальные похождения. Очень скоро они переходят от незначительных преступлений к поражающим своей жестокостью убийствам. Желая продемонстрировать свои «подвиги» наибольшему количеству зрителей, они продают видеозаписи на телевидение. Передача, которая решилась пустить это в эфир, моментально становится самой высоко рейтинговой, а наши герои новыми звездами экрана. Но полицейские тоже смотрят телевизор, и тоже не прочь прославиться на всю Америку, пристрелив убийц в прямом эфире...

Качество: BDRip 720p
Формат: AVC (библиотека кодирования x.264)
Контейнер (Расширение): MKV
Видео: 1280x544, 4970 Кбит/сек, 23,976 кадр/сек, 0,298 Бит/[Пиксели*Кадры]
Аудио №1: русский / AC3 / 2.0 / 48 kHz / 192 kbps / 16 bit |Дублированный («МосФильм»)|
Аудио №2: русский / AC3 / 5.1 / 48 kHz / 448 kbps / 16 bit |Профессиональный двухголосый|
Аудио №3: русский / AC3 / 5.1 / 48 kHz / 384 kbps / 16 bit |Профессиональный многоголосый|
Аудио №4: русский / AC3 / 2.0 / 48 kHz / 192 kbps / 16 bit |Профессиональный многоголосый, R5|
Аудио №5: английский / AC3 / 5.1 / 48 kHz / 640 kbps /
Субтитры: русские
Навигация по главам(Чаптеры): есть
Продолжительность: 02:00:43Автор рипа: Сообщество:

MediaInfo

Format : Matroska
Format version : Version 2
File size : 5.76 GiB
Duration : 2h 0mn
Overall bit rate : 6 826 Kbps
Movie name : 15 Minutes.(2001).BDRip.720p.[denis100]
Encoded date : UTC 2015-12-21 14:41:53
Writing application : mkvmerge v5.8.0 ('No Sleep / Pillow') built on Sep 2 2012 15:37:04
Writing library : libebml v1.2.3 + libmatroska v1.3.0
Video
ID : 1
Format : AVC
Format/Info : Advanced Video Codec
Format profile : High@L4.1
Format settings, CABAC : Yes
Format settings, ReFrames : 9 frames
Codec ID : V_MPEG4/ISO/AVC
Duration : 2h 0mn
Bit rate : 4 970 Kbps
Width : 1 280 pixels
Height : 544 pixels
Display aspect ratio : 2.35:1
Frame rate : 23.976 fps
Color space : YUV
Chroma subsampling : 4:2:0
Bit depth : 8 bits
Scan type : Progressive
Bits/(Pixel*Frame) : 0.298
Stream size : 4.08 GiB (71%)
Title : 15 Minutes.(2001).BDRip.720p.[denis100]
Writing library : x264 core 148 r2638 7599210
Encoding settings : cabac=1 / ref=9 / deblock=1:-3:-3 / analyse=0x3:0x133 / me=umh / subme=11 / psy=1 / psy_rd=1.00:0.15 / mixed_ref=1 / me_range=48 / chroma_me=1 / trellis=2 / 8x8dct=1 / cqm=0 / deadzone=21,11 / fast_pskip=0 / chroma_qp_offset=-3 / threads=6 / lookahead_threads=1 / sliced_threads=0 / nr=0 / decimate=1 / interlaced=0 / bluray_compat=0 / constrained_intra=0 / bframes=11 / b_pyramid=2 / b_adapt=2 / b_bias=0 / direct=3 / weightb=1 / open_gop=0 / weightp=2 / keyint=240 / keyint_min=23 / scenecut=40 / intra_refresh=0 / rc=2pass / mbtree=0 / bitrate=4970 / ratetol=1.0 / qcomp=0.60 / qpmin=0 / qpmax=69 / qpstep=4 / cplxblur=20.0 / qblur=0.5 / ip_ratio=1.40 / pb_ratio=1.30 / aq=1:0.80
Language : English
Default : Yes
Forced : No
Audio #1
ID : 2
Format : AC-3
Format/Info : Audio Coding 3
Mode extension : CM (complete main)
Codec ID : A_AC3
Duration : 2h 0mn
Bit rate mode : Constant
Bit rate : 192 Kbps
Channel(s) : 2 channels
Channel positions : Front: L R
Sampling rate : 48.0 KHz
Bit depth : 16 bits
Compression mode : Lossy
Stream size : 166 MiB (3%)
Title : Дублированный («МосФильм»)
Language : Russian
Default : Yes
Forced : No
Audio #2
ID : 3
Format : AC-3
Format/Info : Audio Coding 3
Mode extension : CM (complete main)
Codec ID : A_AC3
Duration : 2h 0mn
Bit rate mode : Constant
Bit rate : 448 Kbps
Channel(s) : 6 channels
Channel positions : Front: L C R, Side: L R, LFE
Sampling rate : 48.0 KHz
Bit depth : 16 bits
Compression mode : Lossy
Stream size : 387 MiB (7%)
Title : Профессиональный двухголосый
Language : Russian
Default : No
Forced : No
Audio #3
ID : 4
Format : AC-3
Format/Info : Audio Coding 3
Mode extension : CM (complete main)
Codec ID : A_AC3
Duration : 2h 0mn
Bit rate mode : Constant
Bit rate : 384 Kbps
Channel(s) : 6 channels
Channel positions : Front: L C R, Side: L R, LFE
Sampling rate : 48.0 KHz
Bit depth : 16 bits
Compression mode : Lossy
Stream size : 332 MiB (6%)
Title : Профессиональный многоголосый
Language : Russian
Default : No
Forced : No
Audio #4
ID : 5
Format : AC-3
Format/Info : Audio Coding 3
Mode extension : CM (complete main)
Codec ID : A_AC3
Duration : 2h 0mn
Bit rate mode : Constant
Bit rate : 192 Kbps
Channel(s) : 2 channels
Channel positions : Front: L R
Sampling rate : 48.0 KHz
Bit depth : 16 bits
Compression mode : Lossy
Stream size : 166 MiB (3%)
Title : Профессиональный многоголосый, R5
Language : Russian
Default : No
Forced : No
Audio #5
ID : 6
Format : AC-3
Format/Info : Audio Coding 3
Mode extension : CM (complete main)
Codec ID : A_AC3
Duration : 2h 0mn
Bit rate mode : Constant
Bit rate : 640 Kbps
Channel(s) : 6 channels
Channel positions : Front: L C R, Side: L R, LFE
Sampling rate : 48.0 KHz
Bit depth : 16 bits
Compression mode : Lossy
Stream size : 553 MiB (9%)
Language : English
Default : No
Forced : No
Text
ID : 7
Format : UTF-8
Codec ID : S_TEXT/UTF8
Codec ID/Info : UTF-8 Plain Text
Language : Russian
Default : No
Forced : No
Menu
00:00:00.000 : en:Chapter 01
00:02:50.920 : en:Chapter 02
00:06:59.627 : en:Chapter 03
00:09:37.326 : en:Chapter 04
00:15:25.799 : en:Chapter 05
00:22:22.549 : en:Chapter 06
00:31:57.624 : en:Chapter 07
00:35:57.446 : en:Chapter 08
00:39:46.050 : en:Chapter 09
00:45:42.906 : en:Chapter 10
00:48:46.715 : en:Chapter 11
00:52:52.335 : en:Chapter 12
01:00:21.034 : en:Chapter 13
01:04:50.845 : en:Chapter 14
01:14:33.886 : en:Chapter 15
01:20:18.188 : en:Chapter 16
01:27:43.132 : en:Chapter 17
01:33:50.166 : en:Chapter 18
01:38:01.125 : en:Chapter 19
01:44:19.544 : en:Chapter 20
01:52:38.626 : en:Chapter 21

x264

x264 [info]: frame I:1254 Avg QP:16.70 size:114513
x264 [info]: frame P:42098 Avg QP:19.45 size: 46155
x264 [info]: frame B:130313 Avg QP:21.58 size: 18501
x264 [info]: consecutive B-frames: 2.6% 4.7% 9.9% 29.2% 20.8% 26.7% 3.6% 1.4% 0.4% 0.3% 0.1% 0.3%

Скриншоты

[Цитировать]



Показать сообщения:    

Текущее время: 10-Дек 23:29

Часовой пояс: UTC + 3


Вы не можете начинать темы
Вы не можете отвечать на сообщения
Вы не можете редактировать свои сообщения
Вы не можете удалять свои сообщения
Вы не можете голосовать в опросах
Вы не можете прикреплять файлы к сообщениям
Вы не можете скачивать файлы

!ВНИМАНИЕ!
Сайт не предоставляет электронные версии произведений, а занимается лишь коллекционированием и каталогизацией ссылок, присылаемых и публикуемых на форуме нашими читателями. Если вы являетесь правообладателем какого-либо представленного материала и не желаете, чтобы ссылка на него находилась в нашем каталоге, свяжитесь с нами, и мы незамедлительно удалим ее. Файлы для обмена на трекере предоставлены пользователями сайта, и администрация не несет ответственности за их содержание. Просьба не заливать файлы, защищенные авторскими правами, а также файлы нелегального содержания!