[ Today is free to download without increasing Download ]

DL-List and Torrent activity
Дети 90-х Информация о фильме
Название: Дети 90-х
Год выхода: 2015
Жанр: Криминал, драма
Режиссер: Максим Юсупов, Михаил Носко
В ролях: Никита Юдаев, Максим Юсупов, Михаил Носко, Вадим Леонтьев, Сергей Степанов
О фильме: Эта история начинается в далёком 98-м году, когда её главные герои были еще детьми. Случайно оказавшись на месте расправы — они спасают жизнь человека. Спустя 15 лет после этого случая друзья оказываются вовлеченными в опасную игру, на кону которой стоит жизнь, волею судьбы автором их неприятностей оказывается некогда спасённый ими мужчина…

Страна: Россия
Продолжительность: 01:23:04
Перевод: Не требуется
Кодек: XviD
Качество: WEBRip
Видео: 656x368 (1.78:1), 24.000 fps, XviD build 73 ~1024 kbps avg, 0.18 bit/pixel
Звук: 44.100 kHz, MPEG Layer 3, 2 ch, ~128.00 kbps avg
Субтитры: Отсутствует


Complete name : E:Изготовление риповDeti 90-x 2015 700mb WEBRip by shkiper.avi
Format : AVI
Format/Info : Audio Video Interleave
File size : 690 MiB
Duration : 1h 23mn
Overall bit rate : 1 162 Kbps
Writing application : VirtualDubMod | www.virtualdub-fr.org || (build 2550/release)
Writing library : VirtualDubMod build 2550/release
ID : 0
Format : MPEG-4 Visual
Format profile : Advanced Simple@L5
Format settings, BVOP : 1
Format settings, QPel : No
Format settings, GMC : No warppoints
Format settings, Matrix : Custom
Codec ID : XVID
Codec ID/Hint : XviD
Duration : 1h 23mn
Bit rate : 1 024 Kbps
Width : 656 pixels
Height : 368 pixels
Display aspect ratio : 16:9
Frame rate : 24.000 fps
Color space : YUV
Chroma subsampling : 4:2:0
Bit depth : 8 bits
Scan type : Progressive
Compression mode : Lossy
Bits/(Pixel*Frame) : 0.177
Stream size : 609 MiB (88%)
Writing library : XviD 73
ID : 1
Format : MPEG Audio
Format version : Version 1
Format profile : Layer 3
Mode : Joint stereo
Mode extension : MS Stereo
Codec ID : 55
Codec ID/Hint : MP3
Duration : 1h 23mn
Bit rate mode : Constant
Bit rate : 128 Kbps
Channel(s) : 2 channels
Sampling rate : 44.1 KHz
Compression mode : Lossy
Stream size : 76.1 MiB (11%)
Alignment : Split accross interleaves
Interleave, duration : 42 ms (1.00 video frame)
Interleave, preload duratio : 500 ms
Writing library : LAME3.99r
Encoding settings : -m j -V 4 -q 2 -lowpass 17 -b 128


Релиз от:


Display posts:    

Current time is: 22-Oct 22:39

All times are UTC + 3

You cannot post new topics in this forum
You cannot reply to topics in this forum
You cannot edit your posts in this forum
You cannot delete your posts in this forum
You cannot vote in polls in this forum
You cannot attach files in this forum
You cannot download files in this forum

The site does not give electronic versions of products, and is engaged only in a collecting and cataloguing of the references sent and published at a forum by our readers. If you are the legal owner of any submitted material and do not wish that the reference to it was in our catalogue, contact us and we shall immediately remove her. Files for an exchange on tracker are given by users of a site, and the administration does not bear the responsibility for their maintenance. The request to not fill in the files protected by copyrights, and also files of the illegal maintenance!