[ Сегодня идет свободное скачивание без начисления Download ]


Статистика раздачи
Нет
 
   
 
Top  
 
 
Бегущий в лабиринте: Испытание огнём
Maze Runner: The Scorch Trials
«Лабиринт был всего лишь началом»

Страна: США
Жанр: фантастика, боевик, триллер
Год выпуска: 2015
Продолжительность: 02:11:42
Перевод: Профессиональный (полное дублирование) [Лицензия BD EUR]
Субтитры: русские, английские
Оригинальная аудиодорожка: нет
Режиссер: Уэс Болл / Wes Ball
В ролях: Дилан О’Брайен, Кая Скоделарио, Ки Хонг Ли, Томас Сэнгстер, Декстер Дарден, Алекс Дж. Флорес, Джейкоб Лофленд, Роза Салазар, Джанкарло Эспозито, Патришия Кларксон, Эйдан Гиллен, Терри Паркс
Описание:
Лабиринт пройден, но Томасу, Терезе, Минхо и прочим глэйдерам не приходится расслабляться. Таинственное руководство ПОРОКА - секретной организации, устроившей гонки на выживание - назначает ребятам новые, смертельно опасные испытания. На сей раз их ждет переход по раскаленной пустыне и встреча с жертвами неизлечимой болезни, которые отличаются буйным нравом и непредсказуемым поведением. Релиз:
Автор рипа: Stalker oK
Сэмпл
Качество видео: BDRip-AVC [Blu-ray 1080p HDCLUB]
Формат видео: MKV
Видео кодек: AVC
Аудио кодек: AC3
Видео: 1204 Кбит/сек, 960x400 (2.40:1), 23,976 кадр/сек, AVC
Аудио: русский, 384 Кбит/сек, 48 КГц, 16 бит, 5.1, AC3
Навигация по главам: есть

MediaInfo

General
Unique ID : 221726058961043896444438925412554892172 (0xA6CEE2B9545D0571A640AB4346A9E38C)
Complete name : M:\Rips\Maze Runner The Scorch Trials\Maze.Runner.The.Scorch.Trials.2015.BDRip-AVC.Dub.1.45Gb...stalkerok.new-team.mkv
Format : Matroska
File size : 1.46 GiB
Duration : 2h 11mn
Overall bit rate : 1 585 Kbps
Movie name : Maze Runner: The Scorch Trials (2015) (New-Team) (Rip by Stalker oK)
Encoded date : UTC 2015-11-21 18:50:50
Writing application : mkvmerge v7.9.0 ('Birds') 64bit
Writing library : libebml v1.3.1 + libmatroska v1.4.2
Video
ID : 1
Format : AVC
Format/Info : Advanced Video Codec
Format profile : High@L4.1
Format settings, CABAC : Yes
Format settings, ReFrames : 13 frames
Codec ID : V_MPEG4/ISO/AVC
Duration : 2h 11mn
Bit rate : 1 204 Kbps
Width : 960 pixels
Height : 400 pixels
Display aspect ratio : 2.40:1
Frame rate : 23.976 fps
Color space : YUV
Chroma subsampling : 4:2:0
Bit depth : 8 bits
Scan type : Progressive
Bits/(Pixel*Frame) : 0.131
Stream size : 1.08 GiB (74%)
Writing library : x264 core 146 r2538kMod 121396c
Encoding settings : cabac=1 / ref=13 / deblock=1:-3:-3 / analyse=0x3:0x133 / me=umh / subme=11 / psy=1 / fade_compensate=0.00 / psy_rd=1.00:0.10 / mixed_ref=1 / me_range=48 / chroma_me=1 / trellis=2 / 8x8dct=1 / cqm=0 / deadzone=21,11 / fast_pskip=0 / chroma_qp_offset=-3 / threads=12 / lookahead_threads=3 / sliced_threads=0 / nr=0 / decimate=0 / interlaced=0 / bluray_compat=0 / constrained_intra=0 / fgo=0 / bframes=15 / b_pyramid=2 / b_adapt=2 / b_bias=0 / direct=3 / weightb=1 / open_gop=0 / weightp=2 / keyint=240 / keyint_min=23 / scenecut=40 / intra_refresh=0 / rc_lookahead=60 / rc=2pass / mbtree=0 / bitrate=1204 / ratetol=1.0 / qcomp=0.70 / qpmin=0 / qpmax=69 / qpstep=4 / cplxblur=20.0 / qblur=0.5 / vbv_maxrate=50000 / vbv_bufsize=62500 / nal_hrd=none / filler=0 / ip_ratio=1.40 / pb_ratio=1.30 / aq=3:0.94
Audio
ID : 4
Format : AC-3
Format/Info : Audio Coding 3
Mode extension : CM (complete main)
Codec ID : A_AC3
Duration : 2h 11mn
Bit rate mode : Constant
Bit rate : 384 Kbps
Channel(s) : 6 channels
Channel positions : Front: L C R, Side: L R, LFE
Sampling rate : 48.0 KHz
Bit depth : 16 bits
Compression mode : Lossy
Stream size : 362 MiB (24%)
Language : Russian
Text #1
ID : 2
Format : UTF-8
Codec ID : S_TEXT/UTF8
Codec ID/Info : UTF-8 Plain Text
Language : Russian
Text #2
ID : 3
Format : UTF-8
Codec ID : S_TEXT/UTF8
Codec ID/Info : UTF-8 Plain Text
Language : English
Menu
00:00:00.000 : en:Chapter 1
00:04:05.119 : en:Chapter 2
00:05:59.817 : en:Chapter 3
00:09:08.798 : en:Chapter 4
00:11:55.840 : en:Chapter 5
00:17:32.676 : en:Chapter 6
00:23:21.191 : en:Chapter 7
00:27:36.029 : en:Chapter 8
00:33:10.238 : en:Chapter 9
00:37:06.682 : en:Chapter 10
00:41:30.988 : en:Chapter 11
00:45:47.369 : en:Chapter 12
00:51:57.781 : en:Chapter 13
00:56:01.775 : en:Chapter 14
01:00:56.319 : en:Chapter 15
01:03:50.535 : en:Chapter 16
01:07:29.253 : en:Chapter 17
01:11:19.191 : en:Chapter 18
01:15:32.819 : en:Chapter 19
01:20:15.060 : en:Chapter 20
01:27:47.470 : en:Chapter 21
01:30:17.286 : en:Chapter 22
01:34:04.013 : en:Chapter 23
01:38:29.904 : en:Chapter 24
01:40:52.546 : en:Chapter 25
01:44:13.121 : en:Chapter 26
01:51:51.871 : en:Chapter 27
01:56:51.212 : en:Chapter 28
02:01:02.713 : en:Chapter 29
02:04:05.146 : en:Chapter 30

Скриншоты

[Цитировать]

Топик был перенесен из форума Новинки кинопроката в форум Фантастика
Henkok



Показать сообщения:    

Текущее время: 07-Дек 15:31

Часовой пояс: UTC + 3


Вы не можете начинать темы
Вы не можете отвечать на сообщения
Вы не можете редактировать свои сообщения
Вы не можете удалять свои сообщения
Вы не можете голосовать в опросах
Вы не можете прикреплять файлы к сообщениям
Вы не можете скачивать файлы

!ВНИМАНИЕ!
Сайт не предоставляет электронные версии произведений, а занимается лишь коллекционированием и каталогизацией ссылок, присылаемых и публикуемых на форуме нашими читателями. Если вы являетесь правообладателем какого-либо представленного материала и не желаете, чтобы ссылка на него находилась в нашем каталоге, свяжитесь с нами, и мы незамедлительно удалим ее. Файлы для обмена на трекере предоставлены пользователями сайта, и администрация не несет ответственности за их содержание. Просьба не заливать файлы, защищенные авторскими правами, а также файлы нелегального содержания!