[ Сегодня идет свободное скачивание без начисления Download ]


Статистика раздачи
Нет
 
   
 
Top  
 
 
Счастливое число Слевина / Lucky Number Slevin«Не тот номер. Не в том месте. Не в то время.»
Год выпуска: 2005
Страна: Германия, США
Производство: Ascendant Pictures
Жанр: триллер, драма, криминал, детектив
Режиссер: Пол МакГиган
В ролях: Джош Хартнетт, Брюс Уиллис, Люси Лью, Морган Фриман, Бен Кингсли, Майкл Рубенфильд, Питер Аутербридж, Стэнли Туччи, Кевин Чэмберлин, Дориан Миссик
Перевод: Профессиональный (полное дублирование) + Двухголосый закадровый + 2 x Авторский одноголосый + Оригинал
Субтитры: Русские, Английские
Описание: Слевину не везет. Дом опечатан, девушка ушла к другому… Его друг Ник уезжает из Нью-Йорка и предлагает Слевину пожить в пустой квартире. В это время крупный криминальный авторитет по прозвищу Босс хочет рассчитаться со своим бывшим партнером Рабби за убийство сына и в отместку «заказать» его наследника.

Релиз от:
Качество: BDRip 1080p
Продолжительность: 01:49:50
Формат: MKV
Видео кодек: AVC [email protected]
Аудио кодек: AC3
Видео: 1920x800 (2,40:1), 23.976 fps, ~878 kbps
Аудио: 48 kHz, AC-3, 6 ch, 448 kbps (Дубляж)
Аудио #2: 48 kHz, AC-3, 6 ch, 448 kbps (Двухголосый закадровый, П.Гланц и И.Королёва)
Аудио #3: 48 kHz, AC-3, 6 ch, 448 kbps (Одноголосый закадровый, Ю.Немахов)
Аудио #4: 48 kHz, AC-3, 6 ch, 448 kbps (Одноголосый закадровый, А.Гаврилов)
Аудио #5: 48 kHz, AC-3, 6 ch, 448 kbps (Original)
Главы: Есть

Media Info

Общее
Уникальный идентификатор : 197063266103319956049453328965306679225 (0x94410127BEC47F0FA54D6C62A623FFB9)
Полное имя : Lucky.Number.Slevin.2006.BDRip.1080p.Rus.Eng.mkv
Формат : Matroska
Версия формата : Version 2
Размер файла : 7,76 Гбайт
Продолжительность : 1 ч. 50 м.
Общий поток : 10,1 Мбит/сек
Название фильма : Счастливое число Слевина / Lucky Number Slevin (2006)
Дата кодирования : UTC 2012-12-17 10:20:37
Программа кодирования : mkvmerge v5.8.0 ('No Sleep / Pillow') built on Sep 2 2012 15:37:04
Библиотека кодирования : libebml v1.2.3 + libmatroska v1.3.0
Видео
Идентификатор : 1
Формат : AVC
Формат/Информация : Advanced Video Codec
Профиль формата : [email protected]
Параметр CABAC формата : Да
Параметр ReFrames формата : 5 кадров
Идентификатор кодека : V_MPEG4/ISO/AVC
Продолжительность : 1 ч. 50 м.
Битрейт : 7878 Кбит/сек
Ширина : 1920 пикселей
Высота : 800 пикселей
Соотношение сторон : 2,40:1
Частота кадров : 23,976 кадра/сек
Цветовое пространство : YUV
Субдискретизация насыщенности : 4:2:0
Битовая глубина : 8 бит
Тип развёртки : Прогрессивная
Бит/(Пиксели*Кадры) : 0.214
Размер потока : 5,89 Гбайт (76%)
Заголовок : Release by AlexKa
Библиотека кодирования : x264 core 129 r2230 1cffe9f
Настройки программы : cabac=1 / ref=5 / deblock=1:-3:-3 / analyse=0x3:0x133 / me=umh / subme=10 / psy=1 / psy_rd=1.00:0.00 / mixed_ref=1 / me_range=32 / chroma_me=1 / trellis=2 / 8x8dct=1 / cqm=0 / deadzone=21,11 / fast_pskip=0 / chroma_qp_offset=-2 / threads=12 / lookahead_threads=2 / sliced_threads=0 / nr=0 / decimate=0 / interlaced=0 / bluray_compat=0 / constrained_intra=0 / bframes=5 / b_pyramid=2 / b_adapt=2 / b_bias=0 / direct=3 / weightb=1 / open_gop=0 / weightp=2 / keyint=240 / keyint_min=23 / scenecut=40 / intra_refresh=0 / rc=2pass / mbtree=0 / bitrate=7878 / ratetol=1.0 / qcomp=0.60 / qpmin=0 / qpmax=69 / qpstep=4 / cplxblur=20.0 / qblur=0.5 / ip_ratio=1.40 / pb_ratio=1.30 / aq=1:0.80
Язык : English
Аудио #1
Идентификатор : 2
Формат : AC-3
Формат/Информация : Audio Coding 3
Расширение режима : CM (complete main)
Идентификатор кодека : A_AC3
Продолжительность : 1 ч. 50 м.
Вид битрейта : Постоянный
Битрейт : 448 Кбит/сек
Каналы : 6 каналов
Расположение каналов : Front: L C R, Side: L R, LFE
Частота : 48,0 КГц
Битовая глубина : 16 бит
Метод сжатия : С потерями
Размер потока : 353 Мбайт (4%)
Заголовок : Дубляж
Язык : Russian
Аудио #2
Идентификатор : 3
Формат : AC-3
Формат/Информация : Audio Coding 3
Расширение режима : CM (complete main)
Идентификатор кодека : A_AC3
Продолжительность : 1 ч. 50 м.
Вид битрейта : Постоянный
Битрейт : 448 Кбит/сек
Каналы : 6 каналов
Расположение каналов : Front: L C R, Side: L R, LFE
Частота : 48,0 КГц
Битовая глубина : 16 бит
Метод сжатия : С потерями
Размер потока : 353 Мбайт (4%)
Заголовок : Двухголосый закадровый, П.Гланц и И.Королёва
Язык : Russian
Аудио #3
Идентификатор : 4
Формат : AC-3
Формат/Информация : Audio Coding 3
Расширение режима : CM (complete main)
Идентификатор кодека : A_AC3
Продолжительность : 1 ч. 50 м.
Вид битрейта : Постоянный
Битрейт : 448 Кбит/сек
Каналы : 6 каналов
Расположение каналов : Front: L C R, Side: L R, LFE
Частота : 48,0 КГц
Битовая глубина : 16 бит
Метод сжатия : С потерями
Размер потока : 353 Мбайт (4%)
Заголовок : Одноголосый закадровый, Ю.Немахов
Язык : Russian
Аудио #4
Идентификатор : 5
Формат : AC-3
Формат/Информация : Audio Coding 3
Расширение режима : CM (complete main)
Идентификатор кодека : A_AC3
Продолжительность : 1 ч. 50 м.
Вид битрейта : Постоянный
Битрейт : 448 Кбит/сек
Каналы : 6 каналов
Расположение каналов : Front: L C R, Side: L R, LFE
Частота : 48,0 КГц
Битовая глубина : 16 бит
Метод сжатия : С потерями
Размер потока : 353 Мбайт (4%)
Заголовок : Одноголосый закадровый, А.Гаврилов
Язык : Russian
Аудио #5
Идентификатор : 6
Формат : AC-3
Формат/Информация : Audio Coding 3
Расширение режима : CM (complete main)
Идентификатор кодека : A_AC3
Продолжительность : 1 ч. 50 м.
Вид битрейта : Постоянный
Битрейт : 448 Кбит/сек
Каналы : 6 каналов
Расположение каналов : Front: L C R, Side: L R, LFE
Частота : 48,0 КГц
Битовая глубина : 16 бит
Метод сжатия : С потерями
Размер потока : 353 Мбайт (4%)
Заголовок : Original
Язык : English
Текст #1
Идентификатор : 7
Формат : UTF-8
Идентификатор кодека : S_TEXT/UTF8
Идентификатор кодека/Информация : UTF-8 Plain Text
Заголовок : Rus
Язык : Russian
Текст #2
Идентификатор : 8
Формат : UTF-8
Идентификатор кодека : S_TEXT/UTF8
Идентификатор кодека/Информация : UTF-8 Plain Text
Заголовок : Eng
Язык : English
Меню
00:00:00.000 : :It All Begins
00:04:38.451 : :A Kansas City Shuffle
00:17:24.050 : :Bad Things Happen in Fours
00:24:03.574 : :Orders Is Orders
00:28:11.530 : :A Small Favor
00:37:18.868 : :The Unlucky Don't Know They're Unlucky
00:43:54.639 : :Lindsey's Investigation
00:47:13.379 : :Cat and Mouse
00:52:13.095 : :Detective Work
00:56:28.975 : :Slevin Gets a Date
01:02:43.725 : :There's Only One Bond
01:04:42.260 : :Time to Come Clean
01:08:19.185 : :A Nice Look for "The Fairy"
01:13:44.427 : :"I'll Give Him a War"
01:17:37.326 : :Old Friends Catch Up
01:22:36.833 : :An Answer to a Question
01:40:03.963 : :A World Class Assassin
01:45:01.552 : :End Credits

Скриншоты


[Цитировать]



Показать сообщения:    

Текущее время: 05-Дек 19:33

Часовой пояс: UTC + 3


Вы не можете начинать темы
Вы не можете отвечать на сообщения
Вы не можете редактировать свои сообщения
Вы не можете удалять свои сообщения
Вы не можете голосовать в опросах
Вы не можете прикреплять файлы к сообщениям
Вы не можете скачивать файлы

!ВНИМАНИЕ!
Сайт не предоставляет электронные версии произведений, а занимается лишь коллекционированием и каталогизацией ссылок, присылаемых и публикуемых на форуме нашими читателями. Если вы являетесь правообладателем какого-либо представленного материала и не желаете, чтобы ссылка на него находилась в нашем каталоге, свяжитесь с нами, и мы незамедлительно удалим ее. Файлы для обмена на трекере предоставлены пользователями сайта, и администрация не несет ответственности за их содержание. Просьба не заливать файлы, защищенные авторскими правами, а также файлы нелегального содержания!