[ Сегодня идет свободное скачивание без начисления Download ]


Статистика раздачи
Нет
 
   
 
Top  
 
 
Неуютная ферма / Cold Comfort Farm (1995) DVDRip-AVC Информация о фильме
Название: Неуютная ферма
Оригинальное название: Cold Comfort Farm
Год выхода: 1995
Жанр: мелодрама, комедия, экранизация
Режиссер: Джон Шлезингер
В ролях:
Кейт Бекинсейл — Flora Poste, Айлин Эткинс — Judith Starkadder, Шила Баррелл — Ada Doom, Стивен Фрай — Mybug, Фредди Джонс — Adam Lambsbreath, Джоанна Ламли — Mrs. Mary Smiling, Иэн МакКеллен — Amos Starkadder, Мириам Маргулис — Mrs. Beetle, Руфус Сьюэлл — Seth Starkadder, Айван Кэй — Reuben Starkadder, Джереми Питерс — Urk, Мария Майлз — Elfine Starkadder, Кристофер Бауэн — Charles Fairford, Луиз Ри — Meriam Beetle, Софи Ревелл — Rennet.
О фильме:
Англия, начало 1930-х годов. Юная Флора Пост после смерти родителей остается одна с содержанием 100 фунтов в год и решает поехать к дальним родственникам на Неуютную ферму. Ферма оказывается мрачной и запущенной, а родственники - один сумасброднее и эксцентричнее другого, и Флора задумывает навести там порядок. Её родня не чета светскому обществу, но с приездом Флоры все преображается...

Страна: Великобритания
Студия: BBC Films, BBC Television Centre, Thames International, Thames Television
Продолжительность: 01:44:26
Перевод: Профессиональный одноголосый, Авторский одноголосый, Оригинал
Файл
Кодек: x264
Качество: DVDRip-AVC
Видео: 718x460 @ 856x460 (1,85:1), 23.976 fps, 2232 kbps
Звук:
Аудио #1: AC3, 192 Kbps, 48.0 KHz, 2 ch (Rus) Профессиональный одноголосый, (skleroz) NewStudio
Аудио #2: AC3, 192 Kbps, 48.0 KHz, 2 ch (Rus) Авторский одноголосый, С.Визгунов
Аудио #3: AC3, 192 Kbps, 48.0 KHz, 2 ch (Eng) Оригинал
Субтитры: Русские, Английские

Скриншоты


MediaInfo

Формат : Matroska
Версия формата : Version 2
Размер файла : 2,05 Гбайт
Продолжительность : 1 ч. 44 м.
Общий поток : 2810 Кбит/сек
Дата кодирования : UTC 2015-11-08 09:58:38
Программа кодирования : mkvmerge v5.4.0 ('Piper') built on Mar 10 2012 13:34:39
Библиотека кодирования : libebml v1.2.3 + libmatroska v1.3.0
Видео
Идентификатор : 1
Формат : AVC
Формат/Информация : Advanced Video Codec
Профиль формата : [email protected]
Параметр CABAC формата : Да
Параметр ReFrames формата : 5 кадров
Идентификатор кодека : V_MPEG4/ISO/AVC
Продолжительность : 1 ч. 44 м.
Битрейт : 2232 Кбит/сек
Ширина : 718 пикселей
Высота : 460 пикселей
Соотношение сторон : 1,85:1
Режим частоты кадров : Постоянный
Частота кадров : 23,976 кадра/сек
Цветовое пространство : YUV
Субдискретизация насыщенности : 4:2:0
Битовая глубина : 8 бит
Тип развёртки : Прогрессивная
Бит/(Пиксели*Кадры) : 0.282
Размер потока : 1,59 Гбайт (78%)
Заголовок : Cold Comfort Farm / Неуютная ферма (1995)
Библиотека кодирования : x264 core 142 r2431 ac76440
Настройки программы : cabac=1 / ref=5 / deblock=1:-3:-3 / analyse=0x3:0x133 / me=umh / subme=11 / psy=1 / psy_rd=1.00:0.00 / mixed_ref=1 / me_range=32 / chroma_me=1 / trellis=2 / 8x8dct=1 / cqm=0 / deadzone=21,11 / fast_pskip=1 / chroma_qp_offset=-2 / threads=6 / lookahead_threads=1 / sliced_threads=0 / nr=0 / decimate=1 / interlaced=0 / bluray_compat=0 / constrained_intra=0 / bframes=8 / b_pyramid=2 / b_adapt=2 / b_bias=0 / direct=3 / weightb=1 / open_gop=0 / weightp=2 / keyint=240 / keyint_min=23 / scenecut=40 / intra_refresh=0 / rc_lookahead=60 / rc=2pass / mbtree=1 / bitrate=2232 / ratetol=1.0 / qcomp=0.60 / qpmin=0 / qpmax=69 / qpstep=4 / cplxblur=20.0 / qblur=0.5 / vbv_maxrate=50000 / vbv_bufsize=62500 / nal_hrd=none / filler=0 / ip_ratio=1.40 / aq=1:1.00
Язык : English
Default : Да
Forced : Нет
Аудио #1
Идентификатор : 2
Формат : AC-3
Формат/Информация : Audio Coding 3
Расширение режима : CM (complete main)
Параметр Endianness формата : Big
Идентификатор кодека : A_AC3
Продолжительность : 1 ч. 44 м.
Вид битрейта : Постоянный
Битрейт : 192 Кбит/сек
Каналы : 2 канала
Расположение каналов : Front: L R
Частота : 48,0 КГц
Битовая глубина : 16 бит
Метод сжатия : С потерями
Размер потока : 143 Мбайт (7%)
Заголовок : VO (skleroz) NewStudio
Язык : Russian
Default : Да
Forced : Нет
Аудио #2
Идентификатор : 3
Формат : AC-3
Формат/Информация : Audio Coding 3
Расширение режима : CM (complete main)
Параметр Endianness формата : Big
Идентификатор кодека : A_AC3
Продолжительность : 1 ч. 44 м.
Вид битрейта : Постоянный
Битрейт : 192 Кбит/сек
Каналы : 2 канала
Расположение каналов : Front: L R
Частота : 48,0 КГц
Битовая глубина : 16 бит
Метод сжатия : С потерями
Размер потока : 143 Мбайт (7%)
Заголовок : AVO (С.Визгунов)
Язык : Russian
Default : Нет
Forced : Нет
Аудио #3
Идентификатор : 4
Формат : AC-3
Формат/Информация : Audio Coding 3
Профиль формата : Dolby Digital
Расширение режима : CM (complete main)
Параметр Endianness формата : Big
Идентификатор кодека : A_AC3
Продолжительность : 1 ч. 44 м.
Вид битрейта : Постоянный
Битрейт : 192 Кбит/сек
Каналы : 2 канала
Расположение каналов : Front: L R
Частота : 48,0 КГц
Битовая глубина : 16 бит
Метод сжатия : С потерями
Размер потока : 143 Мбайт (7%)
Заголовок : Original (English)
Язык : English
Default : Нет
Forced : Нет
Текст #1
Идентификатор : 5
Формат : UTF-8
Идентификатор кодека : S_TEXT/UTF8
Идентификатор кодека/Информация : UTF-8 Plain Text
Заголовок : Rus
Язык : Russian
Default : Нет
Forced : Нет
Текст #2
Идентификатор : 6
Формат : UTF-8
Идентификатор кодека : S_TEXT/UTF8
Идентификатор кодека/Информация : UTF-8 Plain Text
Заголовок : Eng
Язык : English
Default : Нет
Forced : Нет
Меню
00:00:00.000 : en:Chapter 01
00:03:32.133 : en:Chapter 02
00:08:13.567 : en:Chapter 03
00:12:53.034 : en:Chapter 04
00:19:47.101 : en:Chapter 05
00:25:25.201 : en:Chapter 06
00:28:38.535 : en:Chapter 07
00:33:56.668 : en:Chapter 08
00:40:10.935 : en:Chapter 09
00:48:57.836 : en:Chapter 10
00:53:35.936 : en:Chapter 11
00:55:51.236 : en:Chapter 12
00:57:17.736 : en:Chapter 13
01:03:17.903 : en:Chapter 14
01:10:50.103 : en:Chapter 15
01:18:06.537 : en:Chapter 16
01:27:48.338 : en:Chapter 17
01:35:23.838 : en:Chapter 18
01:38:22.505 : en:Chapter 19
01:41:29.672 : en:Chapter 20
01:44:18.406 : en:Chapter 21

[Цитировать]



Показать сообщения:    

Текущее время: 04-Дек 05:00

Часовой пояс: UTC + 3


Вы не можете начинать темы
Вы не можете отвечать на сообщения
Вы не можете редактировать свои сообщения
Вы не можете удалять свои сообщения
Вы не можете голосовать в опросах
Вы не можете прикреплять файлы к сообщениям
Вы не можете скачивать файлы

!ВНИМАНИЕ!
Сайт не предоставляет электронные версии произведений, а занимается лишь коллекционированием и каталогизацией ссылок, присылаемых и публикуемых на форуме нашими читателями. Если вы являетесь правообладателем какого-либо представленного материала и не желаете, чтобы ссылка на него находилась в нашем каталоге, свяжитесь с нами, и мы незамедлительно удалим ее. Файлы для обмена на трекере предоставлены пользователями сайта, и администрация не несет ответственности за их содержание. Просьба не заливать файлы, защищенные авторскими правами, а также файлы нелегального содержания!