[ Сегодня идет свободное скачивание без начисления Download ]


Статистика раздачи
Скачал: [ 1 ]
 
   
 
Top  
 
 
За двумя зайцами (1961) HDTVRip-AVC Информация о фильме
Название: За двумя зайцами
Год выхода: 1961
Жанр: Комедия, экранизация
Режиссер: Виктор Иванов
В ролях: Олег Борисов, Маргарита Криницына, Николай Яковченко, Нонна Копержинская, Наталья Наум, Анатолий Юрченко, Константин Ершов, Таисия Литвиненко, Ольга Викландт, Нина Антонова, Людмила Алфимова, Евдокия Доля, Софья Карамаш
О фильме:
Пижонистый цирюльник Свирид Петрович Голохвостый остается без гроша в кармане. Высокие запросы и страсть к разгульной жизни в компании таких же лоботрясов приводят его к банкротству. Единственным спасением от тюрьмы может стать лишь чудесное появление нужной суммы. И такой вариант маячит у него прямо перед носом - в виде некрасивой и глупой Прони, за которую дают немалое приданое. Заняв денег и прифрантившись, он входит в доверие к Проне и ее родителям и делает предложение. Однако данное по глупости обещание жениться на беднячке Гале затрудняет его путь к выгодному к браку... Экранизация по произведению: Михаил Старицкий.
Страна: СССР, Киностудия им. А. Довженко
Продолжительность: 01:11:39
Перевод: не требуется
Файл
Кодек: x264
Качество: HDTVRip-AVC
Видео: MPEG-4 AVC, 4500 Кбит/с, 886x648
Звук: AC3, 2 ch, 256 Кбит/с

Медиа-Инфо

raw [info]: 886x648p 1:1 @ 25/1 fps (cfr)
x264 [info]: using SAR=1/1
x264 [info]: using cpu capabilities: MMX2 SSE2Fast SSSE3 SSE4.2 AVX
x264 [info]: profile High, level 4.1
x264 [info]: frame I:615 Avg QP:17.32 size:102795
x264 [info]: frame P:34538 Avg QP:20.72 size: 41209
x264 [info]: frame B:72776 Avg QP:22.72 size: 12960
==========================================================================================================
Общее
Уникальный идентификатор : 195143017973977348958167252890012171235 (0x92CF2D9CE77912B58F796F9A8B8D3BE3)
Полное имя : D:За двумя зайцами_1961-HDTVRip-AVC.mkv
Формат : Matroska
Версия формата : Version 2
Размер файла : 2,39 Гбайт
Продолжительность : 1 ч. 11 м.
Общий поток : 4760 Кбит/сек
Название фильма : by filbi1976
Дата кодирования : UTC 2015-12-24 19:44:44
Программа кодирования : mkvmerge v5.8.0 ('No Sleep / Pillow') built on Sep 2 2012 15:37:04
Библиотека кодирования : libebml v1.2.3 + libmatroska v1.3.0
Видео
Идентификатор : 1
Формат : AVC
Формат/Информация : Advanced Video Codec
Профиль формата : High@L4.1
Параметр CABAC формата : Да
Параметр ReFrames формата : 14 кадров
Идентификатор кодека : V_MPEG4/ISO/AVC
Продолжительность : 1 ч. 11 м.
Битрейт : 4500 Кбит/сек
Ширина : 886 пикселей
Высота : 648 пикселей
Соотношение сторон : 4:3
Режим частоты кадров : Постоянный
Частота кадров : 25,000 кадров/сек
Цветовое пространство : YUV
Субдискретизация насыщенности : 4:2:0
Битовая глубина : 8 бит
Тип развёртки : Прогрессивная
Бит/(Пиксели*Кадры) : 0.314
Размер потока : 2,22 Гбайт (93%)
Библиотека кодирования : x264 core 148 r2638 7599210
Настройки программы : cabac=1 / ref=14 / deblock=1:-2:-2 / analyse=0x3:0x113 / me=umh / subme=10 / psy=1 / psy_rd=0.95:0.05 / mixed_ref=1 / me_range=32 / chroma_me=1 / trellis=2 / 8x8dct=1 / cqm=0 / deadzone=21,11 / fast_pskip=0 / chroma_qp_offset=-3 / threads=12 / lookahead_threads=2 / sliced_threads=0 / nr=0 / decimate=0 / interlaced=0 / bluray_compat=0 / constrained_intra=0 / bframes=8 / b_pyramid=2 / b_adapt=2 / b_bias=0 / direct=3 / weightb=1 / open_gop=0 / weightp=2 / keyint=250 / keyint_min=25 / scenecut=40 / intra_refresh=0 / rc_lookahead=40 / rc=2pass / mbtree=0 / bitrate=4500 / ratetol=1.0 / qcomp=0.63 / qpmin=0 / qpmax=39 / qpstep=4 / cplxblur=20.0 / qblur=0.5 / vbv_maxrate=50000 / vbv_bufsize=62500 / nal_hrd=none / filler=0 / ip_ratio=1.40 / pb_ratio=1.30 / aq=1:0.90
Язык : English
Default : Да
Forced : Нет
Цветовой диапазон : Limited
Основные цвета : BT.709
Характеристики трансфера : BT.709
Коэффициенты матрицы : BT.709
Аудио
Идентификатор : 2
Формат : AC-3
Формат/Информация : Audio Coding 3
Расширение режима : CM (complete main)
Параметр Endianness формата : Big
Идентификатор кодека : A_AC3
Продолжительность : 1 ч. 11 м.
Вид битрейта : Постоянный
Битрейт : 256 Кбит/сек
Каналы : 2 канала
Расположение каналов : Front: L R
Частота : 48,0 КГц
Метод сжатия : С потерями
Размер потока : 132 Мбайт (5%)
Язык : Russian
Default : Да
Forced : Нет

[Цитировать]



Показать сообщения:    

Текущее время: 09-Дек 14:35

Часовой пояс: UTC + 3


Вы не можете начинать темы
Вы не можете отвечать на сообщения
Вы не можете редактировать свои сообщения
Вы не можете удалять свои сообщения
Вы не можете голосовать в опросах
Вы не можете прикреплять файлы к сообщениям
Вы не можете скачивать файлы

!ВНИМАНИЕ!
Сайт не предоставляет электронные версии произведений, а занимается лишь коллекционированием и каталогизацией ссылок, присылаемых и публикуемых на форуме нашими читателями. Если вы являетесь правообладателем какого-либо представленного материала и не желаете, чтобы ссылка на него находилась в нашем каталоге, свяжитесь с нами, и мы незамедлительно удалим ее. Файлы для обмена на трекере предоставлены пользователями сайта, и администрация не несет ответственности за их содержание. Просьба не заливать файлы, защищенные авторскими правами, а также файлы нелегального содержания!