[ Сегодня идет свободное скачивание без начисления Download ]


Статистика раздачи
Нет
 
   
 
Top  
 
 
Поднятая целина (1939) DVDRip Информация о фильме
Название: Поднятая целина
Год выхода: 1939
Жанр: Драма, экранизация
Режиссер: Юлий Райзман
В ролях: Борис Добронравов, Михаил Болдуман, Любовь Калюжная, Владимир Дорофеев, Александр Хованский, Сергей Блинников, Николай Хрящиков, Гавриил Белов, Фёдор Селезнев, Елена Максимова, Михаил Дагмаров, Александр Пелевин, Леонид Волков, Освальд Глазунов (Глазниек), Владимир Уральский
О фильме:
Золотой фонд нашей отечественной кинематографии. Экранизация одноимённого романа М. Шолохова (на тот момент существовала только первая часть). Передовые рабочие-«двадцатипятитысячники» направляются в деревню, чтобы помочь трудовому крестьянству перейти к новым, коллективным формам хозяйства. С этой целью приезжает в казачий хутор Гремячий лог и ленинградский рабочий Давыдов. Здесь верховодят кулаки, нещадно эксплуатирующие казачью бедноту. Они умело используют ошибки Макара Нагульнова, руководителя местной партийной организации, восстанавливая против него трудовое казачество. При поддержке бедноты Давыдов организует в Гремячем логе колхоз. На хутор тайно прибывает бывший есаул Половцев. С помощью кулака Островного он пытается вызвать возмущение среди казачества против Советской власти...

Страна: СССР
Студия: Мосфильм
Продолжительность: 01:48:38
Файл
Кодек: XviD
Качество: DVDRip
Видео: 688x512, 1704 Кбит/с, 25 кадр/с
Звук: Русский (AC3, 2 ch, 192 Кбит/с)

Источник

DVD-5 от Видеоком, дата выхода - 2009 г.

Интересно

Владимир Андреевич Дорофеев исполнял роль деда Щукаря дважды! В «Поднятой целине» Юлия Райзмана (1939 г.) и Александра Иванова (1960-1961 годы)
Просто другого Щукаря было представить невозможно!

Инфо-файл

General
Complete name : D:Готовые релизыПоднятая целина. 1939. XviD. DVDRip-Morgan73.avi
Format : AVI
Format/Info : Audio Video Interleave
File size : 1.45 GiB
Duration : 1h 48mn
Overall bit rate : 1 906 Kbps
Movie name : Поднятая целина (1939)
Director : Rip by Morgan73
Genre : Драма, экранизация
Writing application : VirtualDubMod 1.5.10.2 (build 2540/release)
Original source form/Name : Художественный фильм
Comment : РГ MediaClub
Video
ID : 0
Format : MPEG-4 Visual
Format profile : Advanced Simple@L5
Format settings, BVOP : 2
Format settings, QPel : No
Format settings, GMC : No warppoints
Format settings, Matrix : Default (MPEG)
Codec ID : XVID
Codec ID/Hint : XviD
Duration : 1h 48mn
Bit rate : 1 704 Kbps
Width : 688 pixels
Height : 512 pixels
Display aspect ratio : 4:3
Frame rate : 25.000 fps
Color space : YUV
Chroma subsampling : 4:2:0
Bit depth : 8 bits
Scan type : Progressive
Compression mode : Lossy
Bits/(Pixel*Frame) : 0.193
Stream size : 1.29 GiB (89%)
Writing library : XviD 1.2.1 (UTC 2008-12-04)
Audio
ID : 1
Format : AC-3
Format/Info : Audio Coding 3
Mode extension : CM (complete main)
Format settings, Endianness : Big
Codec ID : 2000
Duration : 1h 48mn
Bit rate mode : Constant
Bit rate : 192 Kbps
Channel(s) : 2 channels
Channel positions : Front: L R
Sampling rate : 48.0 KHz
Bit depth : 16 bits
Compression mode : Lossy
Stream size : 149 MiB (10%)
Alignment : Split accross interleaves
Interleave, duration : 40 ms (1.00 video frame)
Interleave, preload duration : 500 ms

Скачать семпл

Семпл

Скриншоты


[Цитировать]



Показать сообщения:    

Текущее время: 01-Май 02:44

Часовой пояс: UTC + 6


Вы не можете начинать темы
Вы не можете отвечать на сообщения
Вы не можете редактировать свои сообщения
Вы не можете удалять свои сообщения
Вы не можете голосовать в опросах
Вы не можете прикреплять файлы к сообщениям
Вы не можете скачивать файлы

!ВНИМАНИЕ!
Сайт не предоставляет электронные версии произведений, а занимается лишь коллекционированием и каталогизацией ссылок, присылаемых и публикуемых на форуме нашими читателями. Если вы являетесь правообладателем какого-либо представленного материала и не желаете, чтобы ссылка на него находилась в нашем каталоге, свяжитесь с нами, и мы незамедлительно удалим ее. Файлы для обмена на трекере предоставлены пользователями сайта, и администрация не несет ответственности за их содержание. Просьба не заливать файлы, защищенные авторскими правами, а также файлы нелегального содержания!