[ Today is free to download without increasing Download ]

DL-List and Torrent activity
Шеф Адам Джонс / Burnt Информация о фильме
Название: Шеф Адам Джонс
Оригинальное название: Burnt
Год выхода: 2015
Жанр: драма, комедия
Режиссер: Джон Уэллс
В ролях: Брэдли Купер, Сиенна Миллер, Омар Си, Даниэль Брюль, Ума Турман, Эмма Томпсон, Риккардо Скамарчио, Сэм Кили, Генри Гоодман, Мэттью Риз
О фильме: В центре сюжета — история некогда знаменитого шеф-повара, который из-за своего пагубного пристрастия теряет собственный ресторан в Париже, пониженный в рейтинге до унизительных двух звезд. Решив не сдаваться, он вновь собирает свою команду, перестраивает лондонский ресторан и надеется получить три звезды.

Выпущено: США / 3 Arts Entertainment, Double Feature Films, PeaPie Films
Продолжительность: 01:36:15
Озвучивание: Дублированное [Чистый звук] Официальное
Формат: MKV
Качество: WEBRip 1080p
Видео: MPEG-4 AVC, 3432 kb/s, 1920x808
Аудио: AC3, 192 kb/s (2 ch)


Format : Matroska
Format version : Version 2
File size : 2.49 GiB
Duration : 1h 36mn
Overall bit rate : 3 698 Kbps
Encoded date : UTC 2015-12-25 08:34:17
Writing application : mkvmerge v8.3.0 ('Over the Horizon') 64bit
Writing library : libebml v1.3.1 + libmatroska v1.4.2
DURATION : 01:36:15.088000000
NUMBER_OF_BYTES : 2529654608
_STATISTICS_WRITING_APP : mkvmerge v8.3.0 ('Over the Horizon') 64bit
_STATISTICS_WRITING_DATE_UTC : 2015-12-25 08:34:17
ID : 1
Format : AVC
Format/Info : Advanced Video Codec
Format profile : High@L4.1
Format settings, CABAC : Yes
Format settings, ReFrames : 4 frames
Duration : 1h 36mn
Bit rate : 3 432 Kbps
Width : 1 920 pixels
Height : 808 pixels
Display aspect ratio : 2.40:1
Frame rate mode : Constant
Frame rate : 24.000 fps
Color space : YUV
Chroma subsampling : 4:2:0
Bit depth : 8 bits
Scan type : Progressive
Bits/(Pixel*Frame) : 0.092
Stream size : 2.31 GiB (93%)
Language : English
Default : Yes
Forced : No
ID : 2
Format : AC-3
Format/Info : Audio Coding 3
Mode extension : CM (complete main)
Format settings, Endianness : Big
Codec ID : A_AC3
Duration : 1h 36mn
Bit rate mode : Constant
Bit rate : 192 Kbps
Channel(s) : 2 channels
Channel positions : Front: L R
Sampling rate : 48.0 KHz
Bit depth : 16 bits
Compression mode : Lossy
Stream size : 132 MiB (5%)
Language : Russian
Default : Yes
Forced : No



Display posts:    

Current time is: 26-Oct 05:19

All times are UTC + 3

You cannot post new topics in this forum
You cannot reply to topics in this forum
You cannot edit your posts in this forum
You cannot delete your posts in this forum
You cannot vote in polls in this forum
You cannot attach files in this forum
You cannot download files in this forum

The site does not give electronic versions of products, and is engaged only in a collecting and cataloguing of the references sent and published at a forum by our readers. If you are the legal owner of any submitted material and do not wish that the reference to it was in our catalogue, contact us and we shall immediately remove her. Files for an exchange on tracker are given by users of a site, and the administration does not bear the responsibility for their maintenance. The request to not fill in the files protected by copyrights, and also files of the illegal maintenance!