[ Сегодня идет свободное скачивание без начисления Download ]


Статистика раздачи
Нет
 
   
 
Top  
 
 
Четыре Рождества / Four Christmases
«His father, her mother, his mother and her father all in one day»
Русское название: Четыре Рождества
Оригинальное название: Four Christmases
Год выпуска: 2008
Жанр: комедия, мелодрама
Выпущено: Германия, США
Режиссер: Сет Гордон
В ролях: Винс Вон , Риз Уизерспун , Роберт Дювалл , Сисси Спейсек , Джон Войт , Джон Фавро , Мэри Стинберген , Дуайт Йоакам , Тим МакГроу , Кристин Ченоуэт , Кэти Миксон , Коллин Кэмп
Перевод: Дублированный, Профессиональный многоголосый

Сюжет фильма:
Влюбленная пара, Брэд и Кейт, пытаются встретить Рождество вместе со своими родителями, но дело осложняется тем, что и его, и ее родители в разводе, поэтому им нужно за один день успеть в четыре разных места...

Качество: BDRip 1080p
Формат: AVC (библиотека кодирования x.264)
Контейнер (Расширение): MKV
Видео: 1920x1080, 11000 Кбит/сек, 23,976 кадр/сек, 0,221 Бит/[Пиксели*Кадры]
Аудио №1: русский / AC3 / 5.1 / 48 kHz / 448 kbps / 16 bit |Дублированный|
Аудио №2: русский / AC3 / 5.1 / 48 kHz / 448 kbps / 16 bit |Профессиональный многоголосый|
Аудио №3: английский / AC3 / 5.1 / 48 kHz / 640 kbps /
Субтитры: русские (Forced), русские, английские
Навигация по главам(Чаптеры): есть
Продолжительность: 01:28:32

MediaInfo

Format : Matroska
Format version : Version 2
File size : 7.75 GiB
Duration : 1h 28mn
Overall bit rate : 12.5 Mbps
Movie name : Four Christmases.(2008).BDRip.1080p.[denis100]
Encoded date : UTC 2015-12-25 13:33:29
Writing application : mkvmerge v5.8.0 ('No Sleep / Pillow') built on Sep 2 2012 15:37:04
Writing library : libebml v1.2.3 + libmatroska v1.3.0
Video
ID : 1
Format : AVC
Format/Info : Advanced Video Codec
Format profile : High@L4.1
Format settings, CABAC : Yes
Format settings, ReFrames : 4 frames
Codec ID : V_MPEG4/ISO/AVC
Duration : 1h 28mn
Bit rate : 11.0 Mbps
Width : 1 920 pixels
Height : 1 080 pixels
Display aspect ratio : 16:9
Frame rate : 23.976 fps
Color space : YUV
Chroma subsampling : 4:2:0
Bit depth : 8 bits
Scan type : Progressive
Bits/(Pixel*Frame) : 0.221
Stream size : 6.65 GiB (86%)
Title : Four Christmases.(2008).BDRip.1080p.[denis100]
Writing library : x264 core 148 r2638 7599210
Encoding settings : cabac=1 / ref=4 / deblock=1:-3:-3 / analyse=0x3:0x133 / me=umh / subme=11 / psy=1 / psy_rd=1.00:0.05 / mixed_ref=1 / me_range=32 / chroma_me=1 / trellis=2 / 8x8dct=1 / cqm=0 / deadzone=21,11 / fast_pskip=0 / chroma_qp_offset=-3 / threads=6 / lookahead_threads=1 / sliced_threads=0 / nr=0 / decimate=1 / interlaced=0 / bluray_compat=0 / constrained_intra=0 / bframes=10 / b_pyramid=2 / b_adapt=2 / b_bias=0 / direct=3 / weightb=1 / open_gop=0 / weightp=2 / keyint=240 / keyint_min=23 / scenecut=40 / intra_refresh=0 / rc=2pass / mbtree=0 / bitrate=11000 / ratetol=1.0 / qcomp=0.60 / qpmin=0 / qpmax=69 / qpstep=4 / cplxblur=20.0 / qblur=0.5 / ip_ratio=1.40 / pb_ratio=1.30 / aq=2:1.00
Language : English
Default : Yes
Forced : No
Audio #1
ID : 2
Format : AC-3
Format/Info : Audio Coding 3
Mode extension : CM (complete main)
Codec ID : A_AC3
Duration : 1h 28mn
Bit rate mode : Constant
Bit rate : 448 Kbps
Channel(s) : 6 channels
Channel positions : Front: L C R, Side: L R, LFE
Sampling rate : 48.0 KHz
Bit depth : 16 bits
Compression mode : Lossy
Stream size : 284 MiB (4%)
Title : DUB
Language : Russian
Default : Yes
Forced : No
Audio #2
ID : 3
Format : AC-3
Format/Info : Audio Coding 3
Mode extension : CM (complete main)
Codec ID : A_AC3
Duration : 1h 28mn
Bit rate mode : Constant
Bit rate : 448 Kbps
Channel(s) : 6 channels
Channel positions : Front: L C R, Side: L R, LFE
Sampling rate : 48.0 KHz
Bit depth : 16 bits
Compression mode : Lossy
Stream size : 284 MiB (4%)
Title : MVO
Language : Russian
Default : No
Forced : No
Audio #3
ID : 4
Format : AC-3
Format/Info : Audio Coding 3
Mode extension : CM (complete main)
Codec ID : A_AC3
Duration : 1h 28mn
Bit rate mode : Constant
Bit rate : 640 Kbps
Channel(s) : 6 channels
Channel positions : Front: L C R, Side: L R, LFE
Sampling rate : 48.0 KHz
Bit depth : 16 bits
Compression mode : Lossy
Stream size : 405 MiB (5%)
Language : English
Default : No
Forced : No
Text #1
ID : 5
Format : UTF-8
Codec ID : S_TEXT/UTF8
Codec ID/Info : UTF-8 Plain Text
Title : Forced
Language : Russian
Default : Yes
Forced : No
Text #2
ID : 6
Format : UTF-8
Codec ID : S_TEXT/UTF8
Codec ID/Info : UTF-8 Plain Text
Language : Russian
Default : No
Forced : No
Text #3
ID : 7
Format : UTF-8
Codec ID : S_TEXT/UTF8
Codec ID/Info : UTF-8 Plain Text
Language : English
Default : No
Forced : No
Menu
00:00:00.000 : en:I'm Talkin' to You
00:03:50.605 : en:Why Marry?
00:06:37.939 : en:No Families Without Lies
00:10:55.446 : en:Grounded
00:14:13.227 : en:Orlando in a Headlock
00:18:20.057 : en:Tag Us In
00:22:27.137 : en:Gift Thrift Blues
00:26:38.430 : en:Breaking Point
00:31:33.349 : en:Cougar and Cooties
00:35:09.774 : en:Making Stinky
00:38:00.778 : en:The Past and the Curious
00:41:37.369 : en:Katie Jump-Jump
00:45:11.083 : en:Do Not Throw Rocks
00:47:13.747 : en:Nativity Volunteers
00:50:45.167 : en:Swaddling This Baby
00:54:38.984 : en:Little Bit Weird
00:58:45.897 : en:Buzzwords
01:03:44.028 : en:Tired of One Foot In
01:07:34.842 : en:Family Time
01:12:30.596 : en:Talking Appraisals
01:15:47.793 : en:Talking About It
01:18:27.536 : en:We're Doing Great
01:20:05.008 : en:End Credits

x264

x264 [info]: frame I:1169 Avg QP:18.53 size:236360
x264 [info]: frame P:33473 Avg QP:20.60 size: 93101
x264 [info]: frame B:92727 Avg QP:22.69 size: 42173
x264 [info]: consecutive B-frames: 2.7% 10.6% 5.7% 42.6% 10.1% 25.1% 2.4% 0.5% 0.1% 0.1% 0.3%

Скриншоты

[Цитировать]



Показать сообщения:    

Текущее время: 07-Дек 13:40

Часовой пояс: UTC + 3


Вы не можете начинать темы
Вы не можете отвечать на сообщения
Вы не можете редактировать свои сообщения
Вы не можете удалять свои сообщения
Вы не можете голосовать в опросах
Вы не можете прикреплять файлы к сообщениям
Вы не можете скачивать файлы

!ВНИМАНИЕ!
Сайт не предоставляет электронные версии произведений, а занимается лишь коллекционированием и каталогизацией ссылок, присылаемых и публикуемых на форуме нашими читателями. Если вы являетесь правообладателем какого-либо представленного материала и не желаете, чтобы ссылка на него находилась в нашем каталоге, свяжитесь с нами, и мы незамедлительно удалим ее. Файлы для обмена на трекере предоставлены пользователями сайта, и администрация не несет ответственности за их содержание. Просьба не заливать файлы, защищенные авторскими правами, а также файлы нелегального содержания!