[ Сегодня идет свободное скачивание без начисления Download ]


Статистика раздачи
Нет
 
   
 
Top  
 
 
Бедная Саша (1997) Страна: Россия
Производство: Дельфин, Gold Vision, MNVK TV6
Жанр: комедия, приключения, семейный
Год выпуска: 1997
Продолжительность: 01:31:42
Перевод: не требуется
Оригинальная аудиодорожка: русский
Cубтитры: нет
Режиссер: Тигран Кеосаян
В ролях:
Юля Чернова, Александр Збруев, Вера Глаголева, Ольга Волкова, Борис Сичкин, Валерий Гаркалин, Армен Джигарханян, Спартак Мишулин, Нина Русланова, Анатолий Журавлёв, Игорь Воробьев, Георгий Мартиросьян, Сергей Габриэлян, Владимир Прохоров, Владимир Долинский, Андрей Невраев, Фёдор Смирнов, Олег Вершинин, Роман Мадянов, Владимир Гранов, Павел Сиротин, Валерий Ненашев, Леонид Громов, Валентин Никитин, Геннадий Шишков, Илья Бородин, Алексей Кузин...
Описание:
«Бедная Саша» — это в первую очередь детектив! «Новая русская» девочка хочет ограбить банк своей «новой русской» мамы, для того, чтобы она перестала быть банкиршей, а стала просто любимой мамочкой. «Бедная Саша» — это, конечно же, новогодняя сказка о том, как сильно люди нуждаются в любви: девочке недостает родительского тепла, ее мама неуютно чувствует себя без любимого человека. А главный герой, талантливый и благородный, чтобы вновь почувствовать себя мужчиной, должен защитить нежных и трогательных женщин. Тем более, что они — маленькая и взрослая — так похожи на несбыточную мечту…- -Исходник: DVB
Тип релиза: SATRip-AVC
Контейнер: MKV
Видео: 712->760x570 (4:3), 25 fps, H264 ~ 2078 kbps avg, 0.205 bit/pixel
Аудио: 48 kHz, Dolby Digital AC3 2.0, 192 kbps

MediaInfo

Общее
Полное имя : Bednaya.Sasha.1997.SATRip-AVC_[New-team]_by_AVP_Studio.mkv
Формат : Matroska
Версия формата : Version 2
Размер файла : 1,46 Гбайт
Продолжительность : 1 ч. 31 м.
Общий поток : 2272 Кбит/сек
Дата кодирования : UTC 2014-06-12 19:54:02
Программа кодирования : mkvmerge v6.1.0 ('Old Devil') built on Mar 4 2013 09:10:42
Библиотека кодирования : libebml v1.3.0 + libmatroska v1.4.0
Видео
Идентификатор : 1
Формат : AVC
Формат/Информация : Advanced Video Codec
Профиль формата : High@L4.1
Параметр CABAC формата : Да
Параметр ReFrames формата : 8 кадров
Идентификатор кодека : V_MPEG4/ISO/AVC
Продолжительность : 1 ч. 31 м.
Битрейт : 2078 Кбит/сек
Ширина : 712 пикселей
Высота : 570 пикселей
Соотношение сторон : 4:3
Режим частоты кадров : Постоянный
Частота кадров : 25,000 кадров/сек
Цветовое пространство : YUV
Субдискретизация насыщенности : 4:2:0
Битовая глубина : 8 бит
Тип развёртки : Прогрессивная
Бит/(Пиксели*Кадры) : 0.205
Размер потока : 1,30 Гбайт (90%)
Библиотека кодирования : x264 core 138 r2356 a1d3d17
Настройки программы : cabac=1 / ref=8 / deblock=1:-2:-1 / analyse=0x3:0x113 / me=umh / subme=10 / psy=1 / psy_rd=1.00:0.05 / mixed_ref=1 / me_range=32 / chroma_me=1 / trellis=2 / 8x8dct=1 / cqm=0 / deadzone=21,11 / fast_pskip=0 / chroma_qp_offset=-3 / threads=6 / lookahead_threads=1 / sliced_threads=0 / nr=0 / decimate=0 / interlaced=0 / bluray_compat=0 / constrained_intra=0 / bframes=8 / b_pyramid=2 / b_adapt=2 / b_bias=0 / direct=3 / weightb=1 / open_gop=0 / weightp=2 / keyint=250 / keyint_min=25 / scenecut=40 / intra_refresh=0 / rc=2pass / mbtree=0 / bitrate=2078 / ratetol=1.0 / qcomp=0.60 / qpmin=0 / qpmax=69 / qpstep=4 / cplxblur=20.0 / qblur=0.5 / ip_ratio=1.40 / pb_ratio=1.30 / aq=1:1.00
Default : Да
Forced : Нет
Аудио
Идентификатор : 2
Формат : MPEG Audio
Версия формата : Version 1
Профиль формата : Layer 2
Идентификатор кодека : A_MPEG/L2
Идентификатор кодека/Подсказка : MP2
Продолжительность : 1 ч. 31 м.
Вид битрейта : Постоянный
Битрейт : 192 Кбит/сек
Каналы : 2 канала
Частота : 48,0 КГц
Метод сжатия : С потерями
Размер потока : 126 Мбайт (8%)
Default : Да
Forced : Нет

Скриншоты

[Цитировать]



Показать сообщения:    

Текущее время: 28-Фев 13:07

Часовой пояс: UTC + 3


Вы не можете начинать темы
Вы не можете отвечать на сообщения
Вы не можете редактировать свои сообщения
Вы не можете удалять свои сообщения
Вы не можете голосовать в опросах
Вы не можете прикреплять файлы к сообщениям
Вы не можете скачивать файлы

!ВНИМАНИЕ!
Сайт не предоставляет электронные версии произведений, а занимается лишь коллекционированием и каталогизацией ссылок, присылаемых и публикуемых на форуме нашими читателями. Если вы являетесь правообладателем какого-либо представленного материала и не желаете, чтобы ссылка на него находилась в нашем каталоге, свяжитесь с нами, и мы незамедлительно удалим ее. Файлы для обмена на трекере предоставлены пользователями сайта, и администрация не несет ответственности за их содержание. Просьба не заливать файлы, защищенные авторскими правами, а также файлы нелегального содержания!