[ Сегодня идет свободное скачивание без начисления Download ]


Статистика раздачи
Нет
 
   
 
Top  
 
 
Садко (1952) Страна: СССР
Производство: Мосфильм
Жанр: сказка, приключения
Год выпуска: 1952
Продолжительность: 01:24:41
Перевод: Не требуется
Cубтитры: нет
Оригинальная аудиодорожка: русский
Режиссер: Александр Птушко
В ролях:
Сергей Столяров, Алла Ларионова, Михаил Трояновский, Надир Малишевский, Борис Суровцев, Юрий Леонидов (II), Иван Переверзев, Николай Крючков, Сергей Мартинсон, Михаил Астангов, Лев Фенин, Степан Каюков, Ольга Викландт, Нинель Мышкова, Лидия Вертинская...
Полный список актёров
Описание:
По мотивам онежских былин. Купец Садко со своей дружиной отплывает на поиски "птицы счастья". Побывав в разных странах, оказавшись на морском дне, Садко возвращается в великий Новгород с твердым убеждением, что нет краше родной земли.- -Источник: DVD9 R5
Качество видео: DVDRip-AVC
Формат видео: MKV
Видео: 712->762x572 (4:3), 25 fps, H264 ~ 2017 kbps avg, 0.198 bit/pixel
Аудио: 48 kHz, Dolby Digital AC3 5.1, 448 kbps

MediaInfo

Общее
Полное имя : Sadko.1952.DVDRip-AVC_[New-team]_by_AVP_Studio.mkv
Формат : Matroska
Версия формата : Version 4 / Version 2
Размер файла : 1,46 Гбайт
Продолжительность : 1 ч. 24 м.
Общий поток : 2467 Кбит/сек
Дата кодирования : UTC 2015-12-26 08:35:46
Программа кодирования : mkvmerge v8.5.2 ('Crosses') 64bit
Библиотека кодирования : libebml v1.3.3 + libmatroska v1.4.4
DURATION : 01:24:40.832000000
NUMBER_OF_FRAMES : 158776
NUMBER_OF_BYTES : 284526592
_STATISTICS_WRITING_APP : mkvmerge v8.5.2 ('Crosses') 64bit
_STATISTICS_WRITING_DATE_UTC : 2015-12-26 08:35:46
_STATISTICS_TAGS : BPS DURATION NUMBER_OF_FRAMES NUMBER_OF_BYTES
Видео
Идентификатор : 1
Формат : AVC
Формат/Информация : Advanced Video Codec
Профиль формата : [email protected]
Параметр CABAC формата : Да
Параметр ReFrames формата : 10 кадров
Идентификатор кодека : V_MPEG4/ISO/AVC
Продолжительность : 1 ч. 24 м.
Битрейт : 2017 Кбит/сек
Ширина : 712 пикселей
Высота : 572 пикселя
Соотношение сторон : 4:3
Режим частоты кадров : Постоянный
Частота кадров : 25,000 кадров/сек
Цветовое пространство : YUV
Субдискретизация насыщенности : 4:2:0
Битовая глубина : 8 бит
Тип развёртки : Прогрессивная
Бит/(Пиксели*Кадры) : 0.198
Размер потока : 1,17 Гбайт (80%)
Заголовок : Источник DVD 9
Библиотека кодирования : x264 core 130 r2273 b3065e6
Настройки программы : cabac=1 / ref=10 / deblock=1:-2:-1 / analyse=0x3:0x113 / me=umh / subme=10 / psy=1 / psy_rd=1.00:0.00 / mixed_ref=1 / me_range=32 / chroma_me=1 / trellis=2 / 8x8dct=1 / cqm=0 / deadzone=21,11 / fast_pskip=1 / chroma_qp_offset=-2 / threads=6 / lookahead_threads=1 / sliced_threads=0 / nr=0 / decimate=0 / interlaced=0 / bluray_compat=0 / constrained_intra=0 / bframes=8 / b_pyramid=2 / b_adapt=2 / b_bias=0 / direct=3 / weightb=1 / open_gop=0 / weightp=2 / keyint=250 / keyint_min=25 / scenecut=40 / intra_refresh=0 / rc=2pass / mbtree=0 / bitrate=2017 / ratetol=1.0 / qcomp=0.60 / qpmin=0 / qpmax=69 / qpstep=4 / cplxblur=20.0 / qblur=0.5 / ip_ratio=1.40 / pb_ratio=1.30 / aq=1:1.00
Язык : Russian
Default : Да
Forced : Нет
Аудио
Идентификатор : 2
Формат : AC-3
Формат/Информация : Audio Coding 3
Расширение режима : CM (complete main)
Параметр Endianness формата : Big
Идентификатор кодека : A_AC3
Продолжительность : 1 ч. 24 м.
Вид битрейта : Постоянный
Битрейт : 448 Кбит/сек
Каналы : 6 каналов
Расположение каналов : Front: L C R, Side: L R, LFE
Частота : 48,0 КГц
Метод сжатия : С потерями
Размер потока : 271 Мбайт (18%)
Заголовок : Источник DVD 9 Dolby Digital 5,1
Язык : Russian
Default : Да
Forced : Нет

Скриншоты

[Цитировать]



Показать сообщения:    

Текущее время: 06-Дек 19:09

Часовой пояс: UTC + 3


Вы не можете начинать темы
Вы не можете отвечать на сообщения
Вы не можете редактировать свои сообщения
Вы не можете удалять свои сообщения
Вы не можете голосовать в опросах
Вы не можете прикреплять файлы к сообщениям
Вы не можете скачивать файлы

!ВНИМАНИЕ!
Сайт не предоставляет электронные версии произведений, а занимается лишь коллекционированием и каталогизацией ссылок, присылаемых и публикуемых на форуме нашими читателями. Если вы являетесь правообладателем какого-либо представленного материала и не желаете, чтобы ссылка на него находилась в нашем каталоге, свяжитесь с нами, и мы незамедлительно удалим ее. Файлы для обмена на трекере предоставлены пользователями сайта, и администрация не несет ответственности за их содержание. Просьба не заливать файлы, защищенные авторскими правами, а также файлы нелегального содержания!