[ Сегодня идет свободное скачивание без начисления Download ]


Статистика раздачи
Нет
 
   
 
Top  
 
 
Непутёвая учеба / The Bad Education Movie Информация о фильме
Название: Непутёвая учеба
Оригинальное название: The Bad Education Movie
Год выхода: 2015
Жанр: комедия
Режиссер: Эллиот Хегарти
В ролях: Lindsay Adams, Кае Александр, Джек, Бинстед, Пол Блэкуэлл, David Brain, Доминик Коулмэн, Chris Cooke, Стюарт Дэвидсон, Tom Davis, Нил Эдмонд
О фильме: Альфи Уикерс — самый ужасный учитель в истории человечества. Мало того, что он ничего не знает и ничему не учит, так еще и постоянно вляпывается в дурацкие истории и втягивает в них своих учеников. Они, впрочем, вполне достойны своего учителя. Редкостные оболтусы. Вот отправились они на экскурсию в Корнуолл, но вместо осмотра достопримечательностей веселая компания оказалась втянута в государственный переворот…

Выпущено: Великобритания / Cave Bear Productions, Tiger Aspect Productions
Продолжительность: 01:30:43
Озвучивание: Любительское (многоголосное) [Paradox & Omskbird records], перевод [Дмитрий Микушин] / Любительское (двухголосое) [SNK-TV], перевод [Михаил Васильев]
Файл
Формат: MKV
Качество: BDRip 720p
Видео: MPEG-4 AVC, 5387 kb/s, 1280x688
Аудио 1: Russian: AC3, 448 kb/s (6 ch) |Paradox & Omskbird records|
Аудио 2: Russian: AC3, 448 kb/s (6 ch) |SNK-TV|
Аудио 3: English: DTS, 1510 kb/s (6 ch)
Субтитры: Russian [Михаил Васильев], English

MI

Format : Matroska
Format version : Version 2
File size : 4.94 GiB
Duration : 1h 30mn
Overall bit rate : 7 791 Kbps
Encoded date : UTC 2015-12-26 20:02:14
Writing application : mkvmerge v7.8.0 ('River Man') 32bit built on Apr 3 2015 12:11:22
Writing library : libebml v1.3.1 + libmatroska v1.4.2
Video
ID : 1
Format : AVC
Format/Info : Advanced Video Codec
Format profile : High@L4.1
Format settings, CABAC : Yes
Format settings, ReFrames : 5 frames
Codec ID : V_MPEG4/ISO/AVC
Duration : 1h 30mn
Bit rate : 5 387 Kbps
Width : 1 280 pixels
Height : 688 pixels
Display aspect ratio : 1.85:1
Frame rate mode : Constant
Frame rate : 23.976 fps
Color space : YUV
Chroma subsampling : 4:2:0
Bit depth : 8 bits
Scan type : Progressive
Bits/(Pixel*Frame) : 0.255
Stream size : 3.31 GiB (67%)
Writing library : x264 core 148 r2638 7599210
Encoding settings : cabac=1 / ref=5 / deblock=1:-3:-3 / analyse=0x3:0x113 / me=umh / subme=8 / psy=1 / psy_rd=1.00:0.00 / mixed_ref=1 / me_range=16 / chroma_me=1 / trellis=1 / 8x8dct=1 / cqm=0 / deadzone=21,11 / fast_pskip=1 / chroma_qp_offset=-2 / threads=12 / lookahead_threads=2 / sliced_threads=0 / nr=0 / decimate=1 / interlaced=0 / bluray_compat=0 / constrained_intra=0 / bframes=3 / b_pyramid=2 / b_adapt=2 / b_bias=0 / direct=3 / weightb=1 / open_gop=0 / weightp=2 / keyint=240 / keyint_min=24 / scenecut=40 / intra_refresh=0 / rc_lookahead=50 / rc=2pass / mbtree=1 / bitrate=5387 / ratetol=1.0 / qcomp=0.60 / qpmin=0 / qpmax=69 / qpstep=4 / cplxblur=20.0 / qblur=0.5 / ip_ratio=1.40 / aq=1:1.00
Language : English
Default : Yes
Forced : No
Audio #1
ID : 2
Format : AC-3
Format/Info : Audio Coding 3
Mode extension : CM (complete main)
Format settings, Endianness : Big
Codec ID : A_AC3
Duration : 1h 30mn
Bit rate mode : Constant
Bit rate : 448 Kbps
Channel(s) : 6 channels
Channel positions : Front: L C R, Side: L R, LFE
Sampling rate : 48.0 KHz
Bit depth : 16 bits
Compression mode : Lossy
Stream size : 291 MiB (6%)
Title : Paradox & Omskbird records
Language : Russian
Default : Yes
Forced : No
Audio #2
ID : 3
Format : AC-3
Format/Info : Audio Coding 3
Mode extension : CM (complete main)
Format settings, Endianness : Big
Codec ID : A_AC3
Duration : 1h 30mn
Bit rate mode : Constant
Bit rate : 448 Kbps
Channel(s) : 6 channels
Channel positions : Front: L C R, Side: L R, LFE
Sampling rate : 48.0 KHz
Bit depth : 16 bits
Compression mode : Lossy
Stream size : 291 MiB (6%)
Title : SNK-TV
Language : Russian
Default : No
Forced : No
Audio #3
ID : 4
Format : DTS
Format/Info : Digital Theater Systems
Mode : 16
Format settings, Endianness : Big
Codec ID : A_DTS
Duration : 1h 30mn
Bit rate mode : Constant
Bit rate : 1 509 Kbps
Channel(s) : 6 channels
Channel positions : Front: L C R, Side: L R, LFE
Sampling rate : 48.0 KHz
Bit depth : 24 bits
Compression mode : Lossy
Stream size : 979 MiB (19%)
Language : English
Default : No
Forced : No
Text #1
ID : 5
Format : UTF-8
Codec ID : S_TEXT/UTF8
Codec ID/Info : UTF-8 Plain Text
Language : Russian
Default : No
Forced : No
Text #2
ID : 6
Format : UTF-8
Codec ID : S_TEXT/UTF8
Codec ID/Info : UTF-8 Plain Text
Language : English
Default : No
Forced : No
Text #3
ID : 7
Format : UTF-8
Codec ID : S_TEXT/UTF8
Codec ID/Info : UTF-8 Plain Text
Title : SDH
Language : English
Default : No
Forced : No
Menu
00:00:00.000 : en:00:00:00.000
00:08:28.675 : en:00:08:28.675
00:12:52.730 : en:00:12:52.730
00:20:54.503 : en:00:20:54.503
00:29:13.835 : en:00:29:13.835
00:39:00.588 : en:00:39:00.588
00:46:34.041 : en:00:46:34.041
00:53:46.932 : en:00:53:46.932
01:01:53.960 : en:01:01:53.960
01:10:37.525 : en:01:10:37.525
01:16:39.136 : en:01:16:39.136
01:22:29.236 : en:01:22:29.236

Скриншоты

[Цитировать]

Топик был перенесен из форума Новинки кинопроката в форум Новинки кинопроката (HD Video)
Viktor1952



Показать сообщения:    

Текущее время: 09-Дек 16:38

Часовой пояс: UTC + 3


Вы не можете начинать темы
Вы не можете отвечать на сообщения
Вы не можете редактировать свои сообщения
Вы не можете удалять свои сообщения
Вы не можете голосовать в опросах
Вы не можете прикреплять файлы к сообщениям
Вы не можете скачивать файлы

!ВНИМАНИЕ!
Сайт не предоставляет электронные версии произведений, а занимается лишь коллекционированием и каталогизацией ссылок, присылаемых и публикуемых на форуме нашими читателями. Если вы являетесь правообладателем какого-либо представленного материала и не желаете, чтобы ссылка на него находилась в нашем каталоге, свяжитесь с нами, и мы незамедлительно удалим ее. Файлы для обмена на трекере предоставлены пользователями сайта, и администрация не несет ответственности за их содержание. Просьба не заливать файлы, защищенные авторскими правами, а также файлы нелегального содержания!