[ Сегодня идет свободное скачивание без начисления Download ]


Статистика раздачи
Нет
 
   
 
Top  
 
 
Золотая мина (1977) DVDRip-AVC Информация о фильме
Название: Золотая мина
Год выхода: 1977
Жанр: Детектив, криминал
Режиссер: Евгений Татарский
В ролях: Михаил Глузский, Евгений Киндинов, Олег Даль, Лариса Удовиченко, Игорь Ефимов, Любовь Полищук, Игорь Янковский, Жанна Прохоренко, Олег Ефремов, Игорь Дмитриев, Елена Фомченко, Лев Лемке, Татьяна Ткач, Игорь Добряков, Геворк Чепчян, Дмитрий Барков
О фильме:
Милицейская группа, возглавляемая полковником Зарубиным расследовала обычное дорожное происшествие: на дороге у дачного поселка неизвестный автомобиль сбил работника универмага Олега Торчинского. А через пару дней архитектор Дроздовский обратился в милицию с заявлением, что кто-то следит за его дачей… Приятель пострадавшего рассказал в милиции о таинственном кладе, спрятанном на одной из дач поселка, который и хотел найти Торчинский, случайно узнавший о существовании ценностей и месте, где их спрятал отец уголовника Бориса Брунова… Борис Брунов, сбежавший из заключения, находился в розыске. Он изменил внешность с помощью хирурга, специализирующегося на пластических операциях, и стал фотографом Косовым. Косову-Брунову удалось ускользнуть из засады, организованной оперативниками у дачи Дроздовского. Пришлось капитану Крошину лететь за главарем шайки в Ялту.
Страна: СССР, Ленфильм
Продолжительность: 01:03:32 + 01:07:08
Перевод: не требуется
Файл
Кодек: x264
Качество: DVDRip-AVC
Видео: MPEG-4 AVC, 2850 Кбит/с, [email protected]
Звук: AC3, 6 ch, 448 Кбит/с, AC3, 1 ch, 160 Кбит/с

Медиа-Инфо

raw [info]: 712x572p 16:15 @ 25/1 fps (cfr)
x264 [info]: using SAR=16/15
x264 [info]: using cpu capabilities: MMX2 SSE2Fast SSSE3 SSE4.2 AVX
x264 [info]: profile High, level 4.1
x264 [info]: frame I:30 Avg QP:15.64 size: 69379
x264 [info]: frame P:673 Avg QP:20.16 size: 26824
x264 [info]: frame B:1806 Avg QP:22.05 size: 8650
===========================================================================================================
Общее
Уникальный идентификатор : 239299065844189198260542711852260568872 (0xB40752DB34CBB940B5F160630FB2AF28)
Полное имя : R:МОИ РИПЫЗолотая мина_1977-DVDRip-AVCМина-1.mkv
Формат : Matroska
Версия формата : Version 2
Размер файла : 1,54 Гбайт
Продолжительность : 1 ч. 3 м.
Общий поток : 3460 Кбит/сек
Дата кодирования : UTC 2015-12-26 15:23:06
Программа кодирования : mkvmerge v5.8.0 ('No Sleep / Pillow') built on Sep 2 2012 15:37:04
Библиотека кодирования : libebml v1.2.3 + libmatroska v1.3.0
Видео
Идентификатор : 1
Формат : AVC
Формат/Информация : Advanced Video Codec
Профиль формата : [email protected]
Параметр CABAC формата : Да
Параметр ReFrames формата : 15 кадров
Идентификатор кодека : V_MPEG4/ISO/AVC
Продолжительность : 1 ч. 3 м.
Битрейт : 2850 Кбит/сек
Ширина : 712 пикселей
Высота : 572 пикселя
Соотношение сторон : 4:3
Соотношение сторон в оригинале : 4:3
Режим частоты кадров : Постоянный
Частота кадров : 25,000 кадров/сек
Цветовое пространство : YUV
Субдискретизация насыщенности : 4:2:0
Битовая глубина : 8 бит
Тип развёртки : Прогрессивная
Бит/(Пиксели*Кадры) : 0.280
Размер потока : 1,24 Гбайт (80%)
Библиотека кодирования : x264 core 148 r2638 7599210
Настройки программы : cabac=1 / ref=15 / deblock=1:-2:-2 / analyse=0x3:0x133 / me=umh / subme=10 / psy=1 / psy_rd=1.05:0.13 / mixed_ref=1 / me_range=32 / chroma_me=1 / trellis=2 / 8x8dct=1 / cqm=0 / deadzone=21,11 / fast_pskip=0 / chroma_qp_offset=-3 / threads=12 / lookahead_threads=2 / sliced_threads=0 / nr=0 / decimate=0 / interlaced=0 / bluray_compat=0 / constrained_intra=0 / bframes=8 / b_pyramid=2 / b_adapt=2 / b_bias=0 / direct=3 / weightb=1 / open_gop=0 / weightp=2 / keyint=250 / keyint_min=25 / scenecut=40 / intra_refresh=0 / rc_lookahead=40 / rc=2pass / mbtree=1 / bitrate=2850 / ratetol=1.0 / qcomp=0.65 / qpmin=0 / qpmax=39 / qpstep=4 / cplxblur=20.0 / qblur=0.5 / ip_ratio=1.40 / aq=1:1.00
Язык : English
Default : Да
Forced : Нет
Цветовой диапазон : Limited
Основные цвета : BT.601 PAL
Характеристики трансфера : BT.470 System B, BT.470 System G
Коэффициенты матрицы : BT.601
Аудио #1
Идентификатор : 2
Формат : AC-3
Формат/Информация : Audio Coding 3
Расширение режима : CM (complete main)
Параметр Endianness формата : Big
Идентификатор кодека : A_AC3
Продолжительность : 1 ч. 3 м.
Вид битрейта : Постоянный
Битрейт : 448 Кбит/сек
Каналы : 6 каналов
Расположение каналов : Front: L C R, Side: L R, LFE
Частота : 48,0 КГц
Метод сжатия : С потерями
Размер потока : 204 Мбайт (13%)
Язык : Russian
Default : Да
Forced : Нет
Аудио #2
Идентификатор : 3
Формат : AC-3
Формат/Информация : Audio Coding 3
Расширение режима : CM (complete main)
Параметр Endianness формата : Big
Идентификатор кодека : A_AC3
Продолжительность : 1 ч. 3 м.
Вид битрейта : Постоянный
Битрейт : 160 Кбит/сек
Каналы : 1 канал
Расположение каналов : Front: C
Частота : 48,0 КГц
Метод сжатия : С потерями
Размер потока : 72,7 Мбайт (5%)
Язык : Russian
Default : Нет
Forced : Нет

[Цитировать]



Показать сообщения:    

Текущее время: 05-Дек 13:35

Часовой пояс: UTC + 3


Вы не можете начинать темы
Вы не можете отвечать на сообщения
Вы не можете редактировать свои сообщения
Вы не можете удалять свои сообщения
Вы не можете голосовать в опросах
Вы не можете прикреплять файлы к сообщениям
Вы не можете скачивать файлы

!ВНИМАНИЕ!
Сайт не предоставляет электронные версии произведений, а занимается лишь коллекционированием и каталогизацией ссылок, присылаемых и публикуемых на форуме нашими читателями. Если вы являетесь правообладателем какого-либо представленного материала и не желаете, чтобы ссылка на него находилась в нашем каталоге, свяжитесь с нами, и мы незамедлительно удалим ее. Файлы для обмена на трекере предоставлены пользователями сайта, и администрация не несет ответственности за их содержание. Просьба не заливать файлы, защищенные авторскими правами, а также файлы нелегального содержания!