[ Сегодня идет свободное скачивание без начисления Download ]


Статистика раздачи
Нет
 
   
 
Top  
 
 
Убойный огонек / Mi gran noche (2015) WEB-DLRip - Производство: Испания
Жанр: Комедия
Режиссер: Алекс де ла Иглесиа
Продюсер: Энрике Сересо, Гэбриель Ариас-Сальгадо, Аксель Кушевацки
Актеры: Рафаэль, Марио Касас, Пепон Ниэто, Бланка Суарес, Уго Сильва, Кармен Мачи, Луис Кальехо, Карлос Аресес, Энрике Вильен, Сантьяго Сегура
Описание:
Телезапись зрелищного «новогоднего огонька» оборачивается абсолютным сумасшествием, когда череда несчастных случаев обрушивается на съемочную площадку один за другим. Съемочный кран только что разгромил столик с массовкой… включая массовку. Одержимая фанатка шантажирует Адана, сексапильную сверх всякой меры поп-звезду. За легендарным певцом Альфонсо открывает вооруженную охоту сумасшедший автор песен. Один из актеров массовки, Хосе, пытает свое счастье с прекрасной Паломой, однако всех ее мужчин обычно преследуют беды. Тем временем снаружи разъяренная толпа требует ареста бесчестного продюсера шоу. В любой момент все окончательно выйдет из под контроля. Как всегда, «праздник» подкрался незаметно!
Дата мировой премьеры: 11 сентября 2015
Дата премьеры в России: 28 декабря 2015
Продолжительность: 01:37:02
Качество видео: WEB-DLRip
Язык: Русский
Перевод: Многоголосый закадровый, профессиональный (iTunes)
Видео: AVC/H.264, 1280x540, ~3951
Аудио: AC3, 6 ch, 384, CBR
Семпл: Скачать

Mediainfo:

Общее
Уникальный идентификатор                 : 191884373606518521796846627724336418942 (0x905B960A937A01CCA7657C84C2A1D07E)
Полное имя                               : D:\Video\Newest\Uboyniy.ogonek.2015.WEB-DL.720p.mkv
Формат                                   : Matroska
Версия формата                           : Version 4 / Version 2
Размер файла                             : 3,00 Гбайт
Продолжительность                        : 1 ч. 37 м.
Общий поток                              : 4423 Кбит/сек
Дата кодирования                         : UTC 2015-12-27 19:30:58
Программа кодирования                    : mkvmerge v8.3.0 ('Over the Horizon') 64bit
Библиотека кодирования                   : libebml v1.3.1 + libmatroska v1.4.2
DURATION                                 : 01:37:02.624000000
NUMBER_OF_FRAMES                         : 181957
NUMBER_OF_BYTES                          : 279485952
_STATISTICS_WRITING_APP                  : mkvmerge v8.3.0 ('Over the Horizon') 64bit
_STATISTICS_WRITING_DATE_UTC             : 2015-12-27 19:30:58
_STATISTICS_TAGS                         : BPS DURATION NUMBER_OF_FRAMES NUMBER_OF_BYTES
Видео
Идентификатор                            : 1
Формат                                   : AVC
Формат/Информация                        : Advanced Video Codec
Профиль формата                          : [email protected]
Параметр CABAC формата                   : Нет
Параметр ReFrames формата                : 2 кадра
Идентификатор кодека                     : V_MPEG4/ISO/AVC
Продолжительность                        : 1 ч. 37 м.
Битрейт                                  : 3951 Кбит/сек
Ширина                                   : 1280 пикселей
Высота                                   : 540 пикселей
Соотношение сторон                       : 2,40:1
Режим частоты кадров                     : Постоянный
Частота кадров                           : 24,000 кадра/сек
Цветовое пространство                    : YUV
Субдискретизация насыщенности            : 4:2:0
Битовая глубина                          : 8 бит
Тип развёртки                            : Прогрессивная
Бит/(Пиксели*Кадры)                      : 0.238
Размер потока                            : 2,68 Гбайт (89%)
Язык                                     : English
Default                                  : Да
Forced                                   : Нет
Color range                              : Limited
Основные цвета                           : BT.709
Характеристики трансфера                 : BT.709
Коэффициенты матрицы                     : BT.709
Аудио
Идентификатор                            : 2
Формат                                   : AC-3
Формат/Информация                        : Audio Coding 3
Расширение режима                        : CM (complete main)
Параметр Endianness формата              : Big
Идентификатор кодека                     : A_AC3
Продолжительность                        : 1 ч. 37 м.
Вид битрейта                             : Постоянный
Битрейт                                  : 384 Кбит/сек
Каналы                                   : 6 каналов
Расположение каналов                     : Front: L C R, Side: L R, LFE
Частота                                  : 48,0 КГц
Метод сжатия                             : С потерями
Размер потока                            : 267 Мбайт (9%)
Язык                                     : Russian
Default                                  : Да
Forced                                   : Нет
Меню
00:00:00.000                             : en:Глава 1
00:05:10.000                             : en:Глава 2
00:11:52.000                             : en:Глава 3
00:18:28.000                             : en:Глава 4
00:23:49.000                             : en:Глава 5
00:29:56.000                             : en:Глава 6
00:35:41.000                             : en:Глава 7
00:40:53.000                             : en:Глава 8
00:46:39.000                             : en:Глава 9
00:51:44.000                             : en:Глава 10
00:57:05.000                             : en:Глава 11
01:02:32.000                             : en:Глава 12
01:08:21.000                             : en:Глава 13
01:13:47.000                             : en:Глава 14
01:19:33.000                             : en:Глава 15
01:25:02.000                             : en:Глава 16
01:30:23.000                             : en:Глава 17
Скриншоты:

[Цитировать]



Показать сообщения:    

Текущее время: 06-Дек 13:17

Часовой пояс: UTC + 3


Вы не можете начинать темы
Вы не можете отвечать на сообщения
Вы не можете редактировать свои сообщения
Вы не можете удалять свои сообщения
Вы не можете голосовать в опросах
Вы не можете прикреплять файлы к сообщениям
Вы не можете скачивать файлы

!ВНИМАНИЕ!
Сайт не предоставляет электронные версии произведений, а занимается лишь коллекционированием и каталогизацией ссылок, присылаемых и публикуемых на форуме нашими читателями. Если вы являетесь правообладателем какого-либо представленного материала и не желаете, чтобы ссылка на него находилась в нашем каталоге, свяжитесь с нами, и мы незамедлительно удалим ее. Файлы для обмена на трекере предоставлены пользователями сайта, и администрация не несет ответственности за их содержание. Просьба не заливать файлы, защищенные авторскими правами, а также файлы нелегального содержания!