[ Сегодня идет свободное скачивание без начисления Download ]


Статистика раздачи
Нет
 
   
 
Top  
 
 
Ничего личного / Duplicity
«Секс работе не помеха»
Русское название: Ничего личного
Оригинальное название: Duplicity
Год выпуска: 2009
Жанр: триллер, мелодрама, криминал
Выпущено: США, Германия
Режиссер: Тони Гилрой
В ролях: Клайв Оуэн , Джулия Робертс , Том Уилкинсон , Пол Джаматти , Дэн Дэйли , Лиза Робертс Гиллан , Дэвид Шамбрис , Рик Уорси , Олег Штефанко , Дэнис О’Хэр , Кэтлин Чэлфант , Кхан Байкал
Перевод: Дублированный

Сюжет фильма:
Офицер ЦРУ Клэр Стенвик и агент службы MI6 Рэй Коваль покинули сферу правительственной разведки, чтобы нажиться на холодной войне, бушующей между двумя конкурирующими многонациональными корпорациями. Их миссия? Сохранить в тайне формулу, которая обеспечит благосостояние первой запатентовавшей ее компании.
Для их работодателей - промышленного гиганта Говарда Талли и нечистого на руку дельца Дика Гарсика - нет запретных методов достижения своих целей. Но по мере повышения ставок, загадки становятся сложнее, методы - грязнее; для Клэр и Рэя самым удивительным становится их растущее притяжение друг к другу. И хотя каждый из них пытается вести двойную игру, их честолюбивые замыслы рушатся, так как они не могут обмануть собственную любовь.

Качество: BDRip 720p
Формат: AVC (библиотека кодирования x.264)
Контейнер (Расширение): MKV
Видео: 1280x534, 3916 Кбит/сек, 23,976 кадр/сек, 0,239 Бит/[Пиксели*Кадры]
Аудио №1: русский / AC3 / 5.1 / 48 kHz / 448 kbps / |Дублированный|
Аудио №2: английский / AC3 / 5.1 / 48 kHz / 640 kbps /
Субтитры: русские (Forced), русские, английские
Навигация по главам(Чаптеры): есть
Продолжительность: 02:05:02

MediaInfo

Format : Matroska
Format version : Version 2
File size : 4.37 GiB
Duration : 2h 5mn
Overall bit rate : 4 998 Kbps
Movie name : Duplicity.(2009).BDRip.720p.[denis100]
Encoded date : UTC 2015-12-27 09:22:25
Writing application : mkvmerge v5.8.0 ('No Sleep / Pillow') built on Sep 2 2012 15:37:04
Writing library : libebml v1.2.3 + libmatroska v1.3.0
Video
ID : 1
Format : AVC
Format/Info : Advanced Video Codec
Format profile : High@L4.1
Format settings, CABAC : Yes
Format settings, ReFrames : 12 frames
Codec ID : V_MPEG4/ISO/AVC
Duration : 2h 5mn
Bit rate : 3 916 Kbps
Width : 1 280 pixels
Height : 534 pixels
Display aspect ratio : 2.40:1
Frame rate : 23.976 fps
Color space : YUV
Chroma subsampling : 4:2:0
Bit depth : 8 bits
Scan type : Progressive
Bits/(Pixel*Frame) : 0.239
Stream size : 3.33 GiB (76%)
Title : Duplicity.(2009).BDRip.720p.[denis100]
Writing library : x264 core 148 r2638 7599210
Encoding settings : cabac=1 / ref=12 / deblock=1:-3:-3 / analyse=0x3:0x133 / me=umh / subme=11 / psy=1 / psy_rd=1.00:0.00 / mixed_ref=1 / me_range=32 / chroma_me=1 / trellis=2 / 8x8dct=1 / cqm=0 / deadzone=21,11 / fast_pskip=0 / chroma_qp_offset=-2 / threads=6 / lookahead_threads=1 / sliced_threads=0 / nr=0 / decimate=1 / interlaced=0 / bluray_compat=0 / constrained_intra=0 / bframes=10 / b_pyramid=2 / b_adapt=2 / b_bias=0 / direct=3 / weightb=1 / open_gop=0 / weightp=2 / keyint=240 / keyint_min=23 / scenecut=40 / intra_refresh=0 / rc=2pass / mbtree=0 / bitrate=3916 / ratetol=1.0 / qcomp=0.60 / qpmin=0 / qpmax=69 / qpstep=4 / cplxblur=20.0 / qblur=0.5 / ip_ratio=1.40 / pb_ratio=1.30 / aq=2:1.00
Language : English
Default : Yes
Forced : No
Audio #1
ID : 2
Format : AC-3
Format/Info : Audio Coding 3
Mode extension : CM (complete main)
Codec ID : A_AC3
Duration : 2h 5mn
Bit rate mode : Constant
Bit rate : 448 Kbps
Channel(s) : 6 channels
Channel positions : Front: L C R, Side: L R, LFE
Sampling rate : 48.0 KHz
Bit depth : 16 bits
Compression mode : Lossy
Stream size : 401 MiB (9%)
Title : DUB
Language : Russian
Default : Yes
Forced : No
Audio #2
ID : 3
Format : AC-3
Format/Info : Audio Coding 3
Mode extension : CM (complete main)
Codec ID : A_AC3
Duration : 2h 5mn
Bit rate mode : Constant
Bit rate : 640 Kbps
Channel(s) : 6 channels
Channel positions : Front: L C R, Side: L R, LFE
Sampling rate : 48.0 KHz
Bit depth : 16 bits
Compression mode : Lossy
Stream size : 572 MiB (13%)
Language : English
Default : No
Forced : No
Text #1
ID : 4
Format : UTF-8
Codec ID : S_TEXT/UTF8
Codec ID/Info : UTF-8 Plain Text
Title : Forced
Language : Russian
Default : Yes
Forced : No
Text #2
ID : 5
Format : UTF-8
Codec ID : S_TEXT/UTF8
Codec ID/Info : UTF-8 Plain Text
Language : Russian
Default : No
Forced : No
Text #3
ID : 6
Format : UTF-8
Codec ID : S_TEXT/UTF8
Codec ID/Info : UTF-8 Plain Text
Language : English
Default : No
Forced : No
Menu
00:00:00.000 : en:00:00:00.000
00:05:53.478 : en:00:05:53.478
00:10:15.865 : en:00:10:15.865
00:15:54.120 : en:00:15:54.120
00:21:28.746 : en:00:21:28.746
00:28:31.293 : en:00:28:31.293
00:33:57.786 : en:00:33:57.786
00:40:37.560 : en:00:40:37.560
00:49:34.680 : en:00:49:34.680
01:01:01.533 : en:01:01:01.533
01:06:41.206 : en:01:06:41.206
01:12:22.463 : en:01:12:22.463
01:17:17.383 : en:01:17:17.383
01:26:41.613 : en:01:26:41.613
01:36:54.350 : en:01:36:54.350
01:41:07.853 : en:01:41:07.853
01:45:28.822 : en:01:45:28.822
01:51:33.729 : en:01:51:33.729
01:56:25.687 : en:01:56:25.687
01:59:36.544 : en:01:59:36.544

x264

x264 [info]: frame I:1327 Avg QP:13.25 size:104106
x264 [info]: frame P:39047 Avg QP:15.77 size: 37034
x264 [info]: frame B:139506 Avg QP:18.03 size: 14912

Скриншоты

[Цитировать]



Показать сообщения:    

Текущее время: 30-Апр 22:46

Часовой пояс: UTC + 6


Вы не можете начинать темы
Вы не можете отвечать на сообщения
Вы не можете редактировать свои сообщения
Вы не можете удалять свои сообщения
Вы не можете голосовать в опросах
Вы не можете прикреплять файлы к сообщениям
Вы не можете скачивать файлы

!ВНИМАНИЕ!
Сайт не предоставляет электронные версии произведений, а занимается лишь коллекционированием и каталогизацией ссылок, присылаемых и публикуемых на форуме нашими читателями. Если вы являетесь правообладателем какого-либо представленного материала и не желаете, чтобы ссылка на него находилась в нашем каталоге, свяжитесь с нами, и мы незамедлительно удалим ее. Файлы для обмена на трекере предоставлены пользователями сайта, и администрация не несет ответственности за их содержание. Просьба не заливать файлы, защищенные авторскими правами, а также файлы нелегального содержания!