[ Сегодня идет свободное скачивание без начисления Download ]


Статистика раздачи
Нет
 
   
 
Top  
 
 
Морозко (1964) Год выпуска: 1964
Страна: СССР
Жанр: фэнтези, мелодрама, комедия, семейный
Продолжительность: 01:18:50
Перевод: не требуется
Субтитры: нет
Оригинальная аудиодорожка: русский
Режиссер: Александр Роу
В ролях:
Александр Хвыля, Наталья Седых, Эдуард Изотов, Инна Чурикова, Павел Павленко, Вера Алтайская, Георгий Милляр, Галина Борисова (озвучание - Михаил Яншин), Анатолий Кубацкий, Валентин Брылеев, Татьяна Пельтцер, Татьяна Барышева, Варвара Попова, Зинаида Воркуль, Наталья Зорина, Клавдия Козлёнкова, Маргарита Корабельникова, Вера Петрова, Лев Потемкин, Андрей Стапран (озвучание - Юрий Медведев), Константин Старостин, Александр Тимонтаев, Юрий Чекулаев, Михаил Щербаков, Оля и Таня Юкины, Анастасия Зуева...
Полный список актёров
Описание:
Жили-были старик со старухой, и было у них две дочери. Одна, старикова - красавица, умница, рукодельница Настенька. Другая, старухина - некрасивая лентяйка и неумеха Марфушка. Тяжело жилось Настеньке в отчем доме, заставляла ее мачеха работать с утра до ночи и с ночи до утра, да всю злобу на ней вымещала. А в другой деревне жил с матерью добрый молодец Иван, любивший лишь себя самого и красотой да статью своей похвалявшийся. Отправился как-то Иван погулять по белу свету - людей посмотреть и себя показать. И повстречался ему волшебник - старичок Боровичок, подаривший Ивану волшебный лук и стрелы. А невежа Иван ему даже "спасибо" не сказал. Потом встретил Иван Настеньку - и поначалу на красу ее наглядеться не мог, однако, и ее обидел...
Награды:
"Золотой лев Святого Марка" на XVII Международном кинофестивале детских и юношеских фильмов в Венеции (1965), "Award of Excellence" от Консультативного совета по кинематографии США за лучший киносценарий для семейного просмотра- -Исходник: DVD9 R5
Тип релиза: DVDRip-AVC
Контейнер: MKV
Видео: 712->762x572 (4:3), 25 fps, H264 ~ 2200 kbps avg, 0.216 bit/pixel
Аудио: 48 kHz, Dolby Digital AC3 5.1, 448 kbps русский
Аудио: 48 kHz, Dolby Digital AC3 5.1, 448 kbps английский
Аудио: 48 kHz, Dolby Digital AC3 5.1, 448 kbps французский

MediaInfo

Общее
Полное имя : Morozko.1964.DVDRip-AVC_[New-team]_by_AVP_Studio.mkv
Формат : Matroska
Версия формата : Version 4 / Version 2
Размер файла : 1,95 Гбайт
Продолжительность : 1 ч. 18 м.
Общий поток : 3546 Кбит/сек
Дата кодирования : UTC 2015-12-28 08:19:59
Программа кодирования : mkvmerge v8.5.2 ('Crosses') 64bit
Библиотека кодирования : libebml v1.3.3 + libmatroska v1.4.4
DURATION : 01:18:50.112000000
NUMBER_OF_FRAMES : 147816
NUMBER_OF_BYTES : 264886272
_STATISTICS_WRITING_APP : mkvmerge v8.5.2 ('Crosses') 64bit
_STATISTICS_WRITING_DATE_UTC : 2015-12-28 08:19:59
_STATISTICS_TAGS : BPS DURATION NUMBER_OF_FRAMES NUMBER_OF_BYTES
Видео
Идентификатор : 1
Формат : AVC
Формат/Информация : Advanced Video Codec
Профиль формата : High@L4.1
Параметр CABAC формата : Да
Параметр ReFrames формата : 10 кадров
Идентификатор кодека : V_MPEG4/ISO/AVC
Продолжительность : 1 ч. 18 м.
Битрейт : 2200 Кбит/сек
Ширина : 712 пикселей
Высота : 572 пикселя
Соотношение сторон : 4:3
Режим частоты кадров : Постоянный
Частота кадров : 25,000 кадров/сек
Цветовое пространство : YUV
Субдискретизация насыщенности : 4:2:0
Битовая глубина : 8 бит
Тип развёртки : Прогрессивная
Бит/(Пиксели*Кадры) : 0.216
Размер потока : 1,17 Гбайт (60%)
Заголовок : Источник DVD 9
Библиотека кодирования : x264 core 130 r2273 b3065e6
Настройки программы : cabac=1 / ref=10 / deblock=1:-2:-1 / analyse=0x3:0x113 / me=umh / subme=10 / psy=1 / psy_rd=1.00:0.00 / mixed_ref=1 / me_range=32 / chroma_me=1 / trellis=2 / 8x8dct=1 / cqm=0 / deadzone=21,11 / fast_pskip=1 / chroma_qp_offset=-2 / threads=6 / lookahead_threads=1 / sliced_threads=0 / nr=0 / decimate=0 / interlaced=0 / bluray_compat=0 / constrained_intra=0 / bframes=8 / b_pyramid=2 / b_adapt=2 / b_bias=0 / direct=3 / weightb=1 / open_gop=0 / weightp=2 / keyint=250 / keyint_min=25 / scenecut=40 / intra_refresh=0 / rc=2pass / mbtree=0 / bitrate=2200 / ratetol=1.0 / qcomp=0.60 / qpmin=0 / qpmax=69 / qpstep=4 / cplxblur=20.0 / qblur=0.5 / ip_ratio=1.40 / pb_ratio=1.30 / aq=1:1.00
Язык : Russian
Default : Да
Forced : Нет
Аудио #1
Идентификатор : 2
Формат : AC-3
Формат/Информация : Audio Coding 3
Расширение режима : CM (complete main)
Параметр Endianness формата : Big
Идентификатор кодека : A_AC3
Продолжительность : 1 ч. 18 м.
Вид битрейта : Постоянный
Битрейт : 448 Кбит/сек
Каналы : 6 каналов
Расположение каналов : Front: L C R, Side: L R, LFE
Частота : 48,0 КГц
Метод сжатия : С потерями
Размер потока : 253 Мбайт (13%)
Заголовок : Источник DVD Dolby Digital 5,1
Язык : Russian
Default : Да
Forced : Нет
Аудио #2
Идентификатор : 3
Формат : AC-3
Формат/Информация : Audio Coding 3
Расширение режима : CM (complete main)
Параметр Endianness формата : Big
Идентификатор кодека : A_AC3
Продолжительность : 1 ч. 18 м.
Вид битрейта : Постоянный
Битрейт : 448 Кбит/сек
Каналы : 6 каналов
Расположение каналов : Front: L C R, Side: L R, LFE
Частота : 48,0 КГц
Метод сжатия : С потерями
Размер потока : 253 Мбайт (13%)
Заголовок : Источник DVD Dolby Digital 5,1
Язык : English
Default : Нет
Forced : Нет
Аудио #3
Идентификатор : 4
Формат : AC-3
Формат/Информация : Audio Coding 3
Расширение режима : CM (complete main)
Параметр Endianness формата : Big
Идентификатор кодека : A_AC3
Продолжительность : 1 ч. 18 м.
Вид битрейта : Постоянный
Битрейт : 448 Кбит/сек
Каналы : 6 каналов
Расположение каналов : Front: L C R, Side: L R, LFE
Частота : 48,0 КГц
Метод сжатия : С потерями
Размер потока : 253 Мбайт (13%)
Заголовок : Источник DVD Dolby Digital 5,1
Язык : French
Default : Нет
Forced : Нет

Скриншоты

[Цитировать]



Показать сообщения:    

Текущее время: 10-Дек 08:07

Часовой пояс: UTC + 3


Вы не можете начинать темы
Вы не можете отвечать на сообщения
Вы не можете редактировать свои сообщения
Вы не можете удалять свои сообщения
Вы не можете голосовать в опросах
Вы не можете прикреплять файлы к сообщениям
Вы не можете скачивать файлы

!ВНИМАНИЕ!
Сайт не предоставляет электронные версии произведений, а занимается лишь коллекционированием и каталогизацией ссылок, присылаемых и публикуемых на форуме нашими читателями. Если вы являетесь правообладателем какого-либо представленного материала и не желаете, чтобы ссылка на него находилась в нашем каталоге, свяжитесь с нами, и мы незамедлительно удалим ее. Файлы для обмена на трекере предоставлены пользователями сайта, и администрация не несет ответственности за их содержание. Просьба не заливать файлы, защищенные авторскими правами, а также файлы нелегального содержания!