[ Сегодня идет свободное скачивание без начисления Download ]


Статистика раздачи
Нет
 
   
 
Top  
 
 
Дрожь земли 5: Кровное родство
Tremors 5: Bloodlines


Страна: США
Жанр: ужасы, фантастика, боевик
Год выпуска: 2015
Продолжительность: 01:39:02
Перевод #1: Профессиональный (полное дублирование) [Лицензия iTunes]
Перевод #2: Любительский (многоголосый, закадровый) [GreenРай Studio]
Cубтитры: Русские (форсированные, полные), Английские (полные, SDH)
Оригинальная аудиодорожка: Английский
Режиссер: Дон Майкл Пол / Don Michael Paul
В ролях: Майкл Гросс, Джейми Кеннеди, Эрнест Ндлову, Лоуренс Джофф, Зак Хендрикз, Натали Бекер, Эммануэль Кастис, Брэндон Оре, Дэниэл Дженкс, Rea Rangaka, Йен Робертс, Селло Себотсейн
Описание:
Гигантские черви-людоеды, известные как Грабоиды, терроризируют жителей Южной Африки. И самое страшное - это то, что Грабоиды со временем превратились в еще более опасных тварей...


Автор рипа: Stalker oK
Сэмпл
Качество видео: BDRip-AVC [Blu-ray Remux 1080p]
Формат видео: MKV
Видео кодек: AVC
Аудио кодек: AC3, AAC
Видео: 2322 Кбит/сек, 960*540 (16:9), в 23,976 кадр/сек, AVC
Аудио #1: Russian, 192 Кбит/сек, 48,0 КГц, 2 канала, AC-3 [Лицензия iTunes]
Аудио #2: Russian, 256 Кбит/сек, 48,0 КГц, 6 каналов, AAC (LC) [GreenРай Studio]
Аудио #3: English, 384 Кбит/сек, 48,0 КГц, 16 бит, 6 канала(ов), AC-3
Навигация по главам: есть

Перевод/Озвучка GreenРай Studio

Состав дикторов: Райм, Баира, datynet, mazehacka, Андрей Циклис, Азат Саетов, Андрей Зверев
Фильм переведен: Anastassia Belle
Звукорежиссёр: Ar_Dva

MediaInfo

Общее
Уникальный идентификатор : 231173126392961087691516200173026802712 (0xADEA531BFC680AA5B048EA48268DFC18)
Полное имя : M:\Rips\Tremors 5 Bloodlines\Tremors.5.Bloodlines.2015.BDRip-AVC.Dub.MVO.2.18Gb.stalkerok.new-team.mkv
Формат : Matroska
Версия формата : Version 4 / Version 2
Размер файла : 2,18 Гбайт
Продолжительность : 1 ч. 39 м.
Общий поток : 3152 Кбит/сек
Название фильма : Tremors 5: Bloodlines (2015) (New-Team) (Rip by Stalker oK)
Дата кодирования : UTC 2015-12-29 17:42:27
Программа кодирования : mkvmerge v8.6.1 ('Flying') 64bit
Библиотека кодирования : libebml v1.3.3 + libmatroska v1.4.4
Видео
Идентификатор : 1
Формат : AVC
Формат/Информация : Advanced Video Codec
Профиль формата : High@L4.1
Параметр CABAC формата : Да
Параметр ReFrames формата : 12 кадров
Идентификатор кодека : V_MPEG4/ISO/AVC
Продолжительность : 1 ч. 39 м.
Битрейт : 2322 Кбит/сек
Ширина : 960 пикселей
Высота : 540 пикселей
Соотношение сторон : 16:9
Режим частоты кадров : Постоянный
Частота кадров : 23,976 (24000/1001) кадра/сек
Цветовое пространство : YUV
Субдискретизация насыщенности : 4:2:0
Битовая глубина : 8 бит
Тип развёртки : Прогрессивная
Бит/(Пиксели*Кадры) : 0.187
Размер потока : 1,60 Гбайт (74%)
Заголовок : Tremors 5: Bloodlines (2015) (New-Team) (Rip by Stalker oK)
Библиотека кодирования : x264 core 146 r2538kMod 121396c
Настройки программы : cabac=1 / ref=12 / deblock=1:-3:-3 / analyse=0x3:0x133 / me=umh / subme=11 / psy=1 / fade_compensate=0.00 / psy_rd=1.00:0.12 / mixed_ref=1 / me_range=48 / chroma_me=1 / trellis=2 / 8x8dct=1 / cqm=0 / deadzone=21,11 / fast_pskip=0 / chroma_qp_offset=-3 / threads=12 / lookahead_threads=3 / sliced_threads=0 / nr=0 / decimate=0 / interlaced=0 / bluray_compat=0 / constrained_intra=0 / fgo=0 / bframes=12 / b_pyramid=2 / b_adapt=2 / b_bias=0 / direct=3 / weightb=1 / open_gop=0 / weightp=2 / keyint=240 / keyint_min=23 / scenecut=40 / intra_refresh=0 / rc_lookahead=60 / rc=2pass / mbtree=0 / bitrate=2322 / ratetol=1.0 / qcomp=0.70 / qpmin=0 / qpmax=69 / qpstep=4 / cplxblur=20.0 / qblur=0.5 / vbv_maxrate=50000 / vbv_bufsize=62500 / nal_hrd=none / filler=0 / ip_ratio=1.40 / pb_ratio=1.30 / aq=3:0.90
Default : Да
Forced : Нет
Аудио #1
Идентификатор : 2
Формат : AC-3
Формат/Информация : Audio Coding 3
Расширение режима : CM (complete main)
Параметр Endianness формата : Big
Идентификатор кодека : A_AC3
Продолжительность : 1 ч. 38 м.
Вид битрейта : Постоянный
Битрейт : 192 Кбит/сек
Каналы : 2 канала
Расположение каналов : Front: L R
Частота : 48,0 КГц
Частота кадров : 31,250 кадров/сек (1536 spf)
Метод сжатия : С потерями
Размер потока : 136 Мбайт (6%)
Язык : Russian
Default : Да
Forced : Нет
Аудио #2
Идентификатор : 3
Формат : AAC
Формат/Информация : Advanced Audio Codec
Профиль формата : LC
Идентификатор кодека : A_AAC
Продолжительность : 1 ч. 39 м.
Битрейт : 256 Кбит/сек
Каналы : 6 каналов
Расположение каналов : Front: L C R, Side: L R, LFE
Частота : 48,0 КГц
Частота кадров : 46,875 кадров/сек (1024 spf)
Метод сжатия : С потерями
Задержка видео : 9 мс.
Размер потока : 181 Мбайт (8%)
Язык : Russian
Default : Нет
Forced : Нет
Аудио #3
Идентификатор : 4
Формат : AC-3
Формат/Информация : Audio Coding 3
Расширение режима : CM (complete main)
Параметр Endianness формата : Big
Идентификатор кодека : A_AC3
Продолжительность : 1 ч. 39 м.
Вид битрейта : Постоянный
Битрейт : 384 Кбит/сек
Каналы : 6 каналов
Расположение каналов : Front: L C R, Side: L R, LFE
Частота : 48,0 КГц
Частота кадров : 31,250 кадров/сек (1536 spf)
Метод сжатия : С потерями
Размер потока : 272 Мбайт (12%)
Язык : English
Default : Нет
Forced : Нет
Текст #1
Идентификатор : 5
Формат : UTF-8
Идентификатор кодека : S_TEXT/UTF8
Идентификатор кодека/Информация : UTF-8 Plain Text
Продолжительность : 1 ч. 21 м.
Битрейт : 0 бит/сек
Count of elements : 4
Размер потока : 175 байт (0%)
Заголовок : Forced
Язык : Russian
Default : Да
Forced : Нет
Текст #2
Идентификатор : 6
Формат : UTF-8
Идентификатор кодека : S_TEXT/UTF8
Идентификатор кодека/Информация : UTF-8 Plain Text
Продолжительность : 1 ч. 35 м.
Битрейт : 81 бит/сек
Count of elements : 1083
Размер потока : 57,2 Кбайт (0%)
Язык : Russian
Default : Нет
Forced : Нет
Текст #3
Идентификатор : 7
Формат : UTF-8
Идентификатор кодека : S_TEXT/UTF8
Идентификатор кодека/Информация : UTF-8 Plain Text
Продолжительность : 1 ч. 35 м.
Битрейт : 49 бит/сек
Count of elements : 1196
Размер потока : 34,3 Кбайт (0%)
Язык : English
Default : Нет
Forced : Нет
Текст #4
Идентификатор : 8
Формат : UTF-8
Идентификатор кодека : S_TEXT/UTF8
Идентификатор кодека/Информация : UTF-8 Plain Text
Продолжительность : 1 ч. 35 м.
Битрейт : 52 бит/сек
Count of elements : 1325
Размер потока : 36,4 Кбайт (0%)
Заголовок : SDH
Язык : English
Default : Нет
Forced : Нет
Меню
00:00:00.000 : en:00:00:00.000
00:06:52.537 : en:00:06:52.537
00:12:43.179 : en:00:12:43.179
00:17:19.247 : en:00:17:19.247
00:21:48.724 : en:00:21:48.724
00:26:34.426 : en:00:26:34.426
00:31:01.777 : en:00:31:01.777
00:36:38.905 : en:00:36:38.905
00:39:13.309 : en:00:39:13.309
00:46:36.919 : en:00:46:36.919
00:52:46.038 : en:00:52:46.038
00:58:57.534 : en:00:58:57.534
01:04:00.587 : en:01:04:00.587
01:08:57.967 : en:01:08:57.967
01:13:14.974 : en:01:13:14.974
01:16:14.445 : en:01:16:14.445
01:21:47.027 : en:01:21:47.027
01:27:58.857 : en:01:27:58.857
01:31:51.756 : en:01:31:51.756
01:34:11.729 : en:01:34:11.729

Скриншоты

[Цитировать]



Показать сообщения:    

Текущее время: 03-Дек 01:22

Часовой пояс: UTC + 3


Вы не можете начинать темы
Вы не можете отвечать на сообщения
Вы не можете редактировать свои сообщения
Вы не можете удалять свои сообщения
Вы не можете голосовать в опросах
Вы не можете прикреплять файлы к сообщениям
Вы не можете скачивать файлы

!ВНИМАНИЕ!
Сайт не предоставляет электронные версии произведений, а занимается лишь коллекционированием и каталогизацией ссылок, присылаемых и публикуемых на форуме нашими читателями. Если вы являетесь правообладателем какого-либо представленного материала и не желаете, чтобы ссылка на него находилась в нашем каталоге, свяжитесь с нами, и мы незамедлительно удалим ее. Файлы для обмена на трекере предоставлены пользователями сайта, и администрация не несет ответственности за их содержание. Просьба не заливать файлы, защищенные авторскими правами, а также файлы нелегального содержания!