[ Сегодня идет свободное скачивание без начисления Download ]


Статистика раздачи
Нет
 
   
 
Top  
 
 
Жизнь только начинается Год выпуска: 2015
Производство: Россия, Ярсинима, НТВ-КИНО
Жанр: Комедия
Продолжительность: ~00:44:00
Субтитры: нет
Режиссёр: Стас Иванов
В ролях: Дмитрий Миллер, Анна Носатова, Максим Лагашкин, Александр Робак, Валерия Ланская, Алексей Федькин, Галина Петрова, Дмитрий Лавров (III), Михаил Гаврилов (II), Лика Рулла, Юрий Круглов, Яна Чигир, Юрий Ваксман, Анастасия Масленникова, Павел Новиков, Владимир Устюгов, Елена Масленникова, Роман Хардиков, Глеб Данилов, Павел Попов (II), Дмитрий Бедерин
Описание: Анна Дронова — успешная бизнесвумен, с легкостью управляющая крупной косметической фирмой. Вот только личного счастья у женщины нет. Устав от одиночества, женщина отправляется к психотерапевту Петру. Специалист советует Анне встретиться с людьми, которые были в ее жизни раньше и ценили ее. Главная героиня бросает все дела и вместе с охранником и личным помощником отправляется в путешествие, чтобы встретиться с бывшим мужем и одноклассником, который был в нее влюблен...

Качество: HDTVRip
Формат: AVI
Видео кодек: XviD
Аудио кодек: AC3
Видео: 720x400 (1.80:1), 25 fps, XviD build 73 ~1695 kbps avg, 0.22 bit/pixel
Аудио: 48 kHz, AC3 Dolby Digital, 2/0 (L,R) ch, ~192.00 kbps avg

MediaInfo

GeneralComplete name : D:\Vytas\Video\Zyzn.tolko.nacinaetsia.2015.HDTVRip.Files-x\01.Zyzn.tolko.nacinaetsia.2015.HDTVRip.Files-x.aviFormat : AVIFormat/Info : Audio Video InterleaveFile size : 600 MiBDuration : 44mn 14sOverall bit rate : 1 896 KbpsWriting application : VirtualDubModRus 1.5.10.2 (build 2542/release)Writing library : VirtualDubMod build 2542/release
VideoID : 0Format : MPEG-4 VisualFormat profile : Advanced Simple@L5Format settings, BVOP : 1Format settings, QPel : NoFormat settings, GMC : No warppointsFormat settings, Matrix : CustomCodec ID : XVIDCodec ID/Hint : XviDDuration : 44mn 14sBit rate : 1 695 KbpsWidth : 720 pixelsHeight : 400 pixelsDisplay aspect ratio : 16:9Frame rate : 25.000 fpsColor space : YUVChroma subsampling : 4:2:0Bit depth : 8 bitsScan type : ProgressiveCompression mode : LossyBits/(Pixel*Frame) : 0.235Stream size : 536 MiB (89%)Writing library : XviD 73
AudioID : 1Format : AC-3Format/Info : Audio Coding 3Mode extension : CM (complete main)Format settings, Endianness : BigCodec ID : 2000Duration : 44mn 14sBit rate mode : ConstantBit rate : 192 KbpsChannel(s) : 2 channelsChannel positions : Front: L RSampling rate : 48.0 KHzCompression mode : LossyStream size : 60.8 MiB (10%)Alignment : Split accross interleavesInterleave, duration : 40 ms (1.00 video frame)Interleave, preload duratio : 500 ms
Сторонней рекламы нет!

Скриншоты

Внимание! Раздача ведётся путём добавления новых серий!

Внимание! Раздача ведётся путём добавления новых серий
Внимание! Раздача ведётся путём добавления новых серий; при каждом добавлении создётся новый торрент.
Чтобы начать докачку новой серии, пользователям необходимо сделать следующее:
1) остановить скачивание
2) удалить старый торрент у себя из клиента (старые серии удалять не надо)
3) скачать новый торрент и запустить его у себя в клиенте вместо старого, при этом указать клиенту путь в старую папку куда и должно происходить скачивание новых серий.
Ваш клиент при этом должен произвести хеширование (проверку) старой папки (если не производит сам - помогите ему сделать это), и будет докачивать только те серии которых у вас ещё нет. Старые серии при этом не удаляются, а продолжают раздаваться!
Eсли вы уже удалили старые серии, то предотвратить повторную закачку старых серий можно, отжав галочку в соответствовавших местах при запуске нового торрента.

[Цитировать]



Показать сообщения:    

Текущее время: 08-Дек 05:00

Часовой пояс: UTC + 3


Вы не можете начинать темы
Вы не можете отвечать на сообщения
Вы не можете редактировать свои сообщения
Вы не можете удалять свои сообщения
Вы не можете голосовать в опросах
Вы не можете прикреплять файлы к сообщениям
Вы не можете скачивать файлы

!ВНИМАНИЕ!
Сайт не предоставляет электронные версии произведений, а занимается лишь коллекционированием и каталогизацией ссылок, присылаемых и публикуемых на форуме нашими читателями. Если вы являетесь правообладателем какого-либо представленного материала и не желаете, чтобы ссылка на него находилась в нашем каталоге, свяжитесь с нами, и мы незамедлительно удалим ее. Файлы для обмена на трекере предоставлены пользователями сайта, и администрация не несет ответственности за их содержание. Просьба не заливать файлы, защищенные авторскими правами, а также файлы нелегального содержания!