[ Сегодня идет свободное скачивание без начисления Download ]


Статистика раздачи
Нет
 
   
 
Top  
 
 
Плохие соседи по комнате / Bad Roomies (2015) WEB-DL 720p Информация о фильме
Название: Плохие соседи по комнате
Оригинальное название: Bad Roomies
Год выхода: 2015
Жанр: комедия
Режиссер: Джейсон Шнель
В ролях: Патрик Ренна, Томми Савас, Энни Монро, Джеки Тон, Пейдж Кеннеди, Кайл Ховард, Джорди Мастерсон, Кристофер Мастерсон, Линси Бартилсон, Эрик Памфри
О фильме: Черная комедия о двух парнях, живущих вместе, которые, потеряв своего соседа, дают объявление, чтобы найти нового. После серии собеседований с потенциальными соседями по комнате они останавливаются на, казалось бы, безобидной и красивой девушке. Кипящее соперничество, катастрофическая игра соседей в борьбе за девушку, которая изменит всю их жизнь навсегда.
Выпущено: США / Eastside Films
Продолжительность: 01:33:56
Озвучивание: Любительское (двухголосое) [Parovoz Production]
Format : Matroska
Format version : Version 2
File size : 3.05 GiB
Duration : 1h 33mn
Overall bit rate : 4 646 Kbps
Encoded date : UTC 2015-12-30 01:06:42
Writing application : mkvmerge v7.8.0 ('River Man') 32bit built on Apr 3 2015 12:11:22
Writing library : libebml v1.3.1 + libmatroska v1.4.2

Тех. инфо

Video
ID : 1
Format : AVC
Format/Info : Advanced Video Codec
Format profile : [email protected]
Format settings, CABAC : No
Format settings, ReFrames : 2 frames
Codec ID : V_MPEG4/ISO/AVC
Duration : 1h 33mn
Bit rate : 3 977 Kbps
Width : 1 280 pixels
Height : 544 pixels
Display aspect ratio : 2.35:1
Frame rate mode : Constant
Frame rate : 23.976 fps
Color space : YUV
Chroma subsampling : 4:2:0
Bit depth : 8 bits
Scan type : Progressive
Bits/(Pixel*Frame) : 0.238
Stream size : 2.61 GiB (86%)
Language : English
Default : Yes
Forced : No
Color range : Limited
Color primaries : BT.709
Transfer characteristics : BT.709
Matrix coefficients : BT.709
Audio #1
ID : 2
Format : AC-3
Format/Info : Audio Coding 3
Mode extension : CM (complete main)
Format settings, Endianness : Big
Codec ID : A_AC3
Duration : 1h 33mn
Bit rate mode : Constant
Bit rate : 192 Kbps
Channel(s) : 2 channels
Channel positions : Front: L R
Sampling rate : 48.0 KHz
Bit depth : 16 bits
Compression mode : Lossy
Stream size : 129 MiB (4%)
Language : Russian
Default : Yes
Forced : No
Audio #2
ID : 3
Format : AC-3
Format/Info : Audio Coding 3
Mode extension : CM (complete main)
Format settings, Endianness : Big
Codec ID : A_AC3
Duration : 1h 33mn
Bit rate mode : Constant
Bit rate : 384 Kbps
Channel(s) : 6 channels
Channel positions : Front: L C R, Side: L R, LFE
Sampling rate : 48.0 KHz
Bit depth : 16 bits
Compression mode : Lossy
Stream size : 258 MiB (8%)
Language : English
Default : No
Forced : No
Text
ID : 4
Format : UTF-8
Codec ID : S_TEXT/UTF8
Codec ID/Info : UTF-8 Plain Text
Language : English
Default : No
Forced : No
Menu
00:00:00.000 : en:And it Ends
00:12:03.000 : en:House Rules
00:20:17.000 : en:Living Dangerously
00:28:33.000 : en:Party Party
00:35:29.000 : en:Morning After
00:45:00.000 : en:Being an Adult
00:57:35.000 : en:Truth Hurts
01:04:10.000 : en:Keeping it Cool
01:10:32.000 : en:Decisions, Decisions
01:16:54.000 : en:Best Laid Plans...
01:22:24.000 : en:Not Yet Out of the Woods
01:30:10.000 : en:End Credits

[Цитировать]



Показать сообщения:    

Текущее время: 05-Дек 15:36

Часовой пояс: UTC + 3


Вы не можете начинать темы
Вы не можете отвечать на сообщения
Вы не можете редактировать свои сообщения
Вы не можете удалять свои сообщения
Вы не можете голосовать в опросах
Вы не можете прикреплять файлы к сообщениям
Вы не можете скачивать файлы

!ВНИМАНИЕ!
Сайт не предоставляет электронные версии произведений, а занимается лишь коллекционированием и каталогизацией ссылок, присылаемых и публикуемых на форуме нашими читателями. Если вы являетесь правообладателем какого-либо представленного материала и не желаете, чтобы ссылка на него находилась в нашем каталоге, свяжитесь с нами, и мы незамедлительно удалим ее. Файлы для обмена на трекере предоставлены пользователями сайта, и администрация не несет ответственности за их содержание. Просьба не заливать файлы, защищенные авторскими правами, а также файлы нелегального содержания!