[ Сегодня идет свободное скачивание без начисления Download ]


Статистика раздачи
Нет
 
   
 
Top  
 
 
Кукла / The Boy (2015) WEB-DL 1080p Информация о фильме
Название: Мальчик / Кукла / Самый обычный мальчик
Оригинальное название: The Boy
Год выхода: 2015
Жанр: ужасы, триллер, драма
Режиссер: Крэйг Уилльям Макнейлл
В ролях: Дэвид Морс, Рэйн Уилсон, Джаред Бриз, Билл Сейдж, Майк Фогель, Зулейха Робинсон, Эйден Лавкамп, Дэвид Валенсиа, Амалия Санта Мария
О фильме:
Это первая часть трилогии о том, как обычный мальчик становится серийным маньяком-убийцей.
Глухая американская провинция, 1989 год. В мотеле среди лесов и гор живут отец и сын. Семейный бизнес медленно, но верно идет ко дну. Отец слишком погружен в себя, чтобы уделять внимание 9-летнему ребенку и тот сам придумывает себе развлечения. С течением времени развлечения эти становятся все более странными...

Производство: США / Chiller Films, Contento Films, SpectreVision
Продолжительность: 01:50:32
Перевод: любительский (одноголосый закадровый) [LetEatBee]
Файл
Качество: WEB-DL 1080p
Формат: MKV
Видео: MPEG-4 AVC, 1916x800 (2.40:1), 23.976 fps, 4361 kbps
Аудио #1: русский, AC3 5.1, 48 kHz, 384 kbps
Аудио #2: английский, AC3 5.1, 48 kHz, 384 kbps
Субтитры: английские вшитые отключаемые

MediaInfo

Общее
Уникальный идентификатор : 244241382280965678129502548556271425518 (0xB7BF2DDEB28F63AB8C83C565ED1597EE)
Полное имя : The.Boy.2015.x264.WEB-DL.1080p.mkv
Формат : Matroska
Версия формата : Version 4 / Version 2
Размер файла : 4,04 Гбайт
Продолжительность : 1 ч. 50 м.
Общий поток : 5233 Кбит/сек
Дата кодирования : UTC 2015-08-28 15:25:47
Программа кодирования : mkvmerge v7.9.0 ('Birds') 64bit
Библиотека кодирования : libebml v1.3.1 + libmatroska v1.4.2
_STATISTICS_WRITING_APP : mkvmerge v7.9.0 ('Birds') 64bit
_STATISTICS_WRITING_DATE_UTC : 2015-08-28 15:25:47
_STATISTICS_TAGS : BPS DURATION NUMBER_OF_FRAMES NUMBER_OF_BYTES
DURATION : 01:40:56.549000000
NUMBER_OF_FRAMES : 493
NUMBER_OF_BYTES : 15559
Видео
Идентификатор : 1
Формат : AVC
Формат/Информация : Advanced Video Codec
Профиль формата : [email protected]
Параметр CABAC формата : Да
Параметр ReFrames формата : 5 кадров
Идентификатор кодека : V_MPEG4/ISO/AVC
Продолжительность : 1 ч. 50 м.
Битрейт : 4361 Кбит/сек
Ширина : 1916 пикселей
Высота : 800 пикселей
Соотношение сторон : 2,40:1
Режим частоты кадров : Постоянный
Частота кадров : 23,976 кадра/сек
Цветовое пространство : YUV
Субдискретизация насыщенности : 4:2:0
Битовая глубина : 8 бит
Тип развёртки : Прогрессивная
Бит/(Пиксели*Кадры) : 0.119
Размер потока : 3,37 Гбайт (83%)
Язык : English
Default : Да
Forced : Нет
Цветовой диапазон : Limited
Основные цвета : BT.709
Характеристики трансфера : BT.709
Коэффициенты матрицы : BT.709
Аудио #1
Идентификатор : 2
Формат : AC-3
Формат/Информация : Audio Coding 3
Расширение режима : CM (complete main)
Параметр Endianness формата : Big
Идентификатор кодека : A_AC3
Продолжительность : 1 ч. 50 м.
Вид битрейта : Постоянный
Битрейт : 384 Кбит/сек
Каналы : 6 каналов
Расположение каналов : Front: L C R, Side: L R, LFE
Частота : 48,0 КГц
Метод сжатия : С потерями
Размер потока : 304 Мбайт (7%)
Заголовок : VO, LetEatBee
Язык : Russian
Default : Да
Forced : Нет
Аудио #2
Идентификатор : 3
Формат : AC-3
Формат/Информация : Audio Coding 3
Расширение режима : CM (complete main)
Параметр Endianness формата : Big
Идентификатор кодека : A_AC3
Продолжительность : 1 ч. 50 м.
Вид битрейта : Постоянный
Битрейт : 384 Кбит/сек
Каналы : 6 каналов
Расположение каналов : Front: L C R, Side: L R, LFE
Частота : 48,0 КГц
Метод сжатия : С потерями
Размер потока : 304 Мбайт (7%)
Заголовок : Original
Язык : English
Default : Нет
Forced : Нет
Текст
Идентификатор : 4
Формат : UTF-8
Идентификатор кодека : S_TEXT/UTF8
Идентификатор кодека/Информация : UTF-8 Plain Text
Язык : English
Default : Да
Forced : Нет
Меню
00:00:00.000 : en:1
00:03:55.000 : en:2
00:09:24.000 : en:3
00:16:35.000 : en:4
00:23:17.000 : en:5
00:33:58.000 : en:6
00:38:39.000 : en:7
00:47:15.000 : en:8
00:55:10.000 : en:9
01:03:37.000 : en:10
01:09:13.000 : en:11
01:18:03.000 : en:12
01:23:22.000 : en:13
01:28:08.000 : en:14
01:33:55.000 : en:15
01:42:51.000 : en:16

Скриншоты

[Цитировать]



Показать сообщения:    

Текущее время: 06-Дек 13:20

Часовой пояс: UTC + 3


Вы не можете начинать темы
Вы не можете отвечать на сообщения
Вы не можете редактировать свои сообщения
Вы не можете удалять свои сообщения
Вы не можете голосовать в опросах
Вы не можете прикреплять файлы к сообщениям
Вы не можете скачивать файлы

!ВНИМАНИЕ!
Сайт не предоставляет электронные версии произведений, а занимается лишь коллекционированием и каталогизацией ссылок, присылаемых и публикуемых на форуме нашими читателями. Если вы являетесь правообладателем какого-либо представленного материала и не желаете, чтобы ссылка на него находилась в нашем каталоге, свяжитесь с нами, и мы незамедлительно удалим ее. Файлы для обмена на трекере предоставлены пользователями сайта, и администрация не несет ответственности за их содержание. Просьба не заливать файлы, защищенные авторскими правами, а также файлы нелегального содержания!