[ Сегодня идет свободное скачивание без начисления Download ]


Статистика раздачи
Нет
 
   
 
Top  
 
 
Страна: Germany
Жанр: Power Metal
Год выпуска: 1997-2011
Формат: FLAC (image + .cue)
Битрейт аудио: lossless
Сканы: Да

Треклист

01. Nails In My Hands (3:10)
02. King Of Fools (3:52)
03. Innocent Until Caught (4:58)
04. The Other Side (6:51)
05. Tomorrow Never Comes (3:28)
06. Liar's Edge (4:52)
07. Tell / Tale Heart (3:43)
08. Welcome To The Darkside (5:10)
09. Bring You Down (4:18)
10. Deep Down Into Passion (4:35)
11. Mr. Know / It-All (4:16)
12. Liar's Edge (Fifth Season Demo (4:55)
13. Live In Shame (Fifth Season Demo (4:22)
14. Kamikaze (Fifth Season Demo (5:43)
15. Up From The Ashes (Fifth Season Demo) (3:16)
16. Blind (Fifth Season Demo) (4:25)
17. Reach For The Sky (Fifth Season Demo) (5:07)

Лог создания рипа

Отчёт EAC об извлечении, выполненном 14. октября 2008, 19:08 для диска:Brainstorm / Hungry (Remastered 2007)
Дисковод: MATSHITADVD-RAM UJ-860S Adapter: 0 ID: 0Режим чтения: Достоверный (C2: нет, Точный поток: да, Отключение кэша: да)Коррекция смещения при чтении: 102Способность читать области Lead-in и Lead-out : Нет
Выходной формат: Внутренние WAV-операции 44.100 Гц; 16 бит; стерео
Другие параметры: Заполнение пропущенных сэмплов тишиной : Да Удаление блоков с тишиной в начале и конце : Нет Установленный внешний ASPI-интерфейс
Характеристики диапазона извлечения и сообщения об ошибкахВыбранный диапазон Имя файла C:\Music MP3\Brainstorm - Hungry.wav
Пиковый уровень 99.1 % Качество диапазона 99.9 % CRC E2A6BDAF Копирование... OK
Ошибок не произошло
Конец отчёта
01. MCMXCVIII (2:29)
02. Holy War (3:53)
03. Here Comes The Pain (3:51)
04. Voices (6:30)
05. The Healer (4:13)
06. Don't Stop Believing (6:51)
07. Heart Of Hate (5:31)
08. Rebellion (5:47)
09. For The Love Of Money (5:29)
10. Love Is A Lie (6:45)
11. Into The Fire (4:12)
12. Dog Days Coming Down (5:24)
13. Wooly Bully (2:52)
14. Heart Of Hate (1993 demo) (7:46)
15. Valley Of The Kings (1993 demo) (5:30)
01. MCMXCVIII (2:28)
02. Holy War (3:53)
03. Here Comes The Pain (3:51)
04. Voices (6:30)
05. The Healer (4:13)
06. Don't Stop Believing (6:51)
07. Heart Of Hate (5:31)
08. Rebellion (5:47)
09. For The Love Of Money (5:29)
10. Love Is A Lie (6:45)
11. Into The Fire (4:12)
12. Dog Days Coming Down (5:24)
13. Up From The Ashes (3:17)
14. The Other Side (1996 demo) (6:46)
15. Suck My Energy (1996 demo) (4:24)

Лог создания рипа

EAC extraction logfile from 25. November 2009, 20:57 for CDBrainstorm / Unholy (2007) CD1
Used drive : _NEC DVD_RW ND-3500AG Adapter: 0 ID: 2Read mode : Secure with NO C2, accurate stream, disable cacheRead offset correction : 48Overread into Lead-In and Lead-Out : No
Used output format : Internal WAV Routines 44.100 Hz; 16 Bit; Stereo
Other options : Fill up missing offset samples with silence : Yes Delete leading and trailing silent blocks : No Installed external ASPI interface
Range status and errorsSelected range Filename E:\spiralarch\Brainstorm - Unholy (2007) CD1.wav
Peak level 98.9 % Range quality 99.9 % CRC 602A2FA1 Copy OK
No errors occured
End of status report________________________________________________________________________EAC extraction logfile from 25. November 2009, 21:49 for CDBrainstorm / Unholy (2007) CD2
Used drive : _NEC DVD_RW ND-3500AG Adapter: 0 ID: 2Read mode : Secure with NO C2, accurate stream, disable cacheRead offset correction : 48Overread into Lead-In and Lead-Out : No
Used output format : Internal WAV Routines 44.100 Hz; 16 Bit; Stereo
Other options : Fill up missing offset samples with silence : Yes Delete leading and trailing silent blocks : No Installed external ASPI interface
Range status and errorsSelected range Filename E:\spiralarch\Brainstorm - Unholy (2007) CD2.wav
Peak level 94.4 % Range quality 99.9 % CRC 6ADA72B5 Copy OK
No errors occured
End of status report
01. Crush Depth (6:06)
02. Tear Down The Walls (3:55)
03. Beyond My Destiny (8:41)
04. Arena (3:53)
05. Coming Closer (5:52)
06. Darkest Silence (0:54)
07. Maharaja Palace (5:26)
08. Far Away (5:48)
09. Demonsion (6:37)
10. Lost Unseen (6:13)
11. Perception of Life (4:27)

Лог создания рипа

EAC extraction logfile from 28. October 2006, 13:51 for CDBrainstorm / Ambiguity
Used drive : LITE-ON DVD SOHD-16P9S Adapter: 1 ID: 0Read mode : Secure with NO C2, accurate stream, disable cacheRead offset correction : 6Overread into Lead-In and Lead-Out : No
Used output format : C:\Archivos de programa\Exact Audio Copy\MAC.EXE (Monkey's Audio Lossless Encoder) High Lossless Compression
Other options : Fill up missing offset samples with silence : Yes Delete leading and trailing silent blocks : No Native Win32 interface for Win NT & 2000
Range status and errorsSelected range Filename D:\Documents and Settings\Media\Mis documentos\CDImage.wav
Peak level 100.0 % Range quality 100.0 % CRC D2860912 Copy OK
No errors occured
End of status report
01. Metus Mortis (1:06)
02. Blind Suffering (4:24)
03. Shadowland (3:52)
04. Checkmate In Red (4:29)
05. Hollow Hideway (4:25)
06. Weakness Sows Its Seed (5:45)
07. Into The Never (4:22)
08. Under Lights (6:06)
09. Cycles (4:27)
10. Behind (4:26)
11. Meet Me In The Dark (3:11)
12. Strength Of Will (3:42)

Лог создания рипа

Exact Audio Copy V1.0 beta 3 from 29. August 2011
EAC extraction logfile from 24. April 2012, 23:08
Brainstorm / Metus Mortis [Metal Blade, 3984-14384-2, EU]
Used drive : PIONEER DVD-RW DVR-112D Adapter: 1 ID: 0
Read mode : SecureUtilize accurate stream : YesDefeat audio cache : YesMake use of C2 pointers : No
Read offset correction : 48Overread into Lead-In and Lead-Out : NoFill up missing offset samples with silence : YesDelete leading and trailing silent blocks : NoNull samples used in CRC calculations : YesUsed interface : Installed external ASPI interface
Used output format : User Defined EncoderSelected bitrate : 1024 kBit/sQuality : HighAdd ID3 tag : NoCommand line compressor : C:\Program Files\Exact Audio Copy\FLAC\FLAC.EXEAdditional command line options : -V -8 -T "Date=%year%" -T "Genre=%genre%" %source%
TOC of the extracted CD
Track | Start | Length | Start sector | End sector --------------------------------------------------------- 1 | 0:00.00 | 1:06.32 | 0 | 4981 2 | 1:06.32 | 4:23.45 | 4982 | 24751 3 | 5:30.02 | 3:51.53 | 24752 | 42129 4 | 9:21.55 | 4:28.61 | 42130 | 62290 5 | 13:50.41 | 4:25.04 | 62291 | 82169 6 | 18:15.45 | 5:45.20 | 82170 | 108064 7 | 24:00.65 | 4:22.12 | 108065 | 127726 8 | 28:23.02 | 6:05.44 | 127727 | 155145 9 | 34:28.46 | 4:27.31 | 155146 | 175201 10 | 38:56.02 | 4:26.17 | 175202 | 195168 11 | 43:22.19 | 3:11.13 | 195169 | 209506 12 | 46:33.32 | 3:42.04 | 209507 | 226160
Range status and errors
Selected range
Filename C:\CDRip by Deminbek\Brainstorm - Metus Mortis [Metal Blade, 3984-14384-2, EU].wav
Peak level 100.0 % Extraction speed 7.0 X Range quality 99.9 % Test CRC EE3A1329 Copy CRC EE3A1329 Copy OK
No errors occurred
AccurateRip summary
Track 1 cannot be verified as accurate (confidence 4) [22037773], AccurateRip returned [D8FA5883] (AR v2)Track 2 cannot be verified as accurate (confidence 3) [FD4BD754], AccurateRip returned [9AD6D9BD] (AR v2)Track 3 cannot be verified as accurate (confidence 4) [67C55882], AccurateRip returned [5F6CC55F] (AR v2)Track 4 cannot be verified as accurate (confidence 3) [E0B3B579], AccurateRip returned [EAA0FF9B] (AR v2)Track 5 cannot be verified as accurate (confidence 3) [413467B1], AccurateRip returned [C1EA6BA1] (AR v2)Track 6 cannot be verified as accurate (confidence 4) [ED27C73E], AccurateRip returned [54D9A96A] (AR v2)Track 7 cannot be verified as accurate (confidence 3) [1B49CC1D], AccurateRip returned [00D17E7C] (AR v2)Track 8 cannot be verified as accurate (confidence 3) [C8F9C10F], AccurateRip returned [ECF4B109] (AR v2)Track 9 cannot be verified as accurate (confidence 2) [4E55E37C], AccurateRip returned [5FD32226] (AR v2)Track 10 cannot be verified as accurate (confidence 3) [35BC9C03], AccurateRip returned [19E14EDE] (AR v2)Track 11 cannot be verified as accurate (confidence 3) [8E73A20F], AccurateRip returned [642128F7] (AR v2)Track 12 cannot be verified as accurate (confidence 3) [C3C75C5A], AccurateRip returned [67328B4E] (AR v2)
No tracks could be verified as accurateYou may have a different pressing from the one(s) in the database
End of status report
---- CUETools DB Plugin V2.1.3
[CTDB TOCID: laMoOymTkHTEwqkSpPxLMlbTBB0-] found, Submit result: laMoOymTkHTEwqkSpPxLMlbTBB0- has been confirmed[a704ded6] (2/2) Accurately ripped
==== Log checksum 8FC67C68F4BDDACD5AAD89B91B53E6D838B9938C6C74B61BA4D2B3CCE75F05FE ====
01. Highs Without Lows (5:28)
02. Doorway to Survive (3:22)
03. The Leading (5:39)
04. Nunca Nos Rendimos (5:41)
05. Fading (5:31)
06. Shiva's Tears (5:32)
07. Fornever (4:55)
08. Soul Temptation (7:48)
09. Dying Outside (4:09)
10. To the Head (4:37)
11. Rising (5:08)

Лог создания рипа

Exact Audio Copy V1.0 beta 3 from 29. August 2011
EAC extraction logfile from 30. April 2012, 10:10
Brainstorm / Soul Temptation [Fono, F0554CD, Russia]
Used drive : PIONEER DVD-RW DVR-112D Adapter: 1 ID: 0
Read mode : SecureUtilize accurate stream : YesDefeat audio cache : YesMake use of C2 pointers : No
Read offset correction : 48Overread into Lead-In and Lead-Out : NoFill up missing offset samples with silence : YesDelete leading and trailing silent blocks : NoNull samples used in CRC calculations : YesUsed interface : Installed external ASPI interface
Used output format : User Defined EncoderSelected bitrate : 1024 kBit/sQuality : HighAdd ID3 tag : NoCommand line compressor : C:\Program Files\Exact Audio Copy\FLAC\FLAC.EXEAdditional command line options : -V -8 -T "Date=%year%" -T "Genre=%genre%" %source%
TOC of the extracted CD
Track | Start | Length | Start sector | End sector --------------------------------------------------------- 1 | 0:00.00 | 5:28.05 | 0 | 24604 2 | 5:28.05 | 3:21.73 | 24605 | 39752 3 | 8:50.03 | 5:38.48 | 39753 | 65150 4 | 14:28.51 | 5:41.13 | 65151 | 90738 5 | 20:09.64 | 5:30.47 | 90739 | 115535 6 | 25:40.36 | 5:32.05 | 115536 | 140440 7 | 31:12.41 | 4:54.51 | 140441 | 162541 8 | 36:07.17 | 7:47.65 | 162542 | 197631 9 | 43:55.07 | 4:08.43 | 197632 | 216274 10 | 48:03.50 | 4:37.05 | 216275 | 237054 11 | 52:40.55 | 5:08.12 | 237055 | 260166
Range status and errors
Selected range
Filename E:\CDRip by Deminbek\Brainstorm - Soul Temptation [Fono, F0554CD, Russia].wav
Peak level 98.9 % Extraction speed 7.3 X Range quality 100.0 % Test CRC 976ED8E7 Copy CRC 976ED8E7 Copy OK
No errors occurred
AccurateRip summary
Track 1 accurately ripped (confidence 2) [F7217603] (AR v1)Track 2 accurately ripped (confidence 2) [671EF3F4] (AR v1)Track 3 accurately ripped (confidence 2) [C67A7304] (AR v1)Track 4 accurately ripped (confidence 2) [3293785A] (AR v1)Track 5 accurately ripped (confidence 2) [C971DFB2] (AR v1)Track 6 accurately ripped (confidence 2) [0DBAFFC4] (AR v1)Track 7 accurately ripped (confidence 2) [2BE9C529] (AR v1)Track 8 accurately ripped (confidence 2) [C38878E3] (AR v1)Track 9 accurately ripped (confidence 2) [069BB119] (AR v1)Track 10 accurately ripped (confidence 2) [F874CCC4] (AR v1)Track 11 accurately ripped (confidence 2) [8F9E6397] (AR v1)
All tracks accurately ripped
End of status report
---- CUETools DB Plugin V2.1.3
[CTDB TOCID: E29Fhu31uWHtFixh7xibTohHBwQ-] found, Submit result: E29Fhu31uWHtFixh7xibTohHBwQ- has been uploaded[3295f9b4] (1/1) No match
==== Log checksum EBF0FEE4D174D91F36750F0C4A585DB808CB4885D7DCBE79C1B8492939DC083D ====
01. All Those Words (4:07)
02. Before The Dawn (3:17)
03. Shades And Shadows (3:56)
04. (E.O.C.) Cross God's Face (3:56)
05. All Those Words (single edit) (3:55)

Лог создания рипа

EAC extraction logfile from 25. November 2009, 22:12 for CDBrainstorm / All Those Words
Used drive : _NEC DVD_RW ND-3500AG Adapter: 0 ID: 2Read mode : Secure with NO C2, accurate stream, disable cacheRead offset correction : 48Overread into Lead-In and Lead-Out : No
Used output format : Internal WAV Routines 44.100 Hz; 16 Bit; Stereo
Other options : Fill up missing offset samples with silence : Yes Delete leading and trailing silent blocks : No Installed external ASPI interface
Range status and errorsSelected range Filename E:\spiralarch\Brainstorm - All Those Words.wav
Peak level 100.0 % Range quality 99.9 % CRC 0275DB99 Copy OK
No errors occured
End of status report
01. Worlds Are Comin' Through (4:56)
02. Inside The Monster (4:55)
03. All Those Words (4:05)
04. Lifeline (3:05)
05. Invisible Enemy (4:20)
06. Heavenly (5:33)
07. Painside (5:42)
08. Despair To Drown (3:51)
09. Mask Of Life (5:20)
10. Even Higher (4:22)
11. Burns My Soul (5:13)

Лог создания рипа

Exact Audio Copy V1.0 beta 3 from 29. August 2011
EAC extraction logfile from 17. April 2012, 21:21
Brainstorm / Liquid Monster [Metal Blade, 3984-14526-2, EU]
Used drive : PIONEER DVD-RW DVR-112D Adapter: 1 ID: 0
Read mode : SecureUtilize accurate stream : YesDefeat audio cache : YesMake use of C2 pointers : No
Read offset correction : 48Overread into Lead-In and Lead-Out : NoFill up missing offset samples with silence : YesDelete leading and trailing silent blocks : NoNull samples used in CRC calculations : YesUsed interface : Installed external ASPI interface
Used output format : User Defined EncoderSelected bitrate : 1024 kBit/sQuality : HighAdd ID3 tag : NoCommand line compressor : C:\Program Files\Exact Audio Copy\FLAC\FLAC.EXEAdditional command line options : -V -8 -T "Date=%year%" -T "Genre=%genre%" %source%
TOC of the extracted CD
Track | Start | Length | Start sector | End sector --------------------------------------------------------- 1 | 0:00.00 | 4:55.53 | 0 | 22177 2 | 4:55.53 | 4:54.49 | 22178 | 44276 3 | 9:50.27 | 4:05.14 | 44277 | 62665 4 | 13:55.41 | 3:04.59 | 62666 | 76524 5 | 17:00.25 | 4:20.13 | 76525 | 96037 6 | 21:20.38 | 5:32.49 | 96038 | 120986 7 | 26:53.12 | 5:42.02 | 120987 | 146638 8 | 32:35.14 | 3:51.10 | 146639 | 163973 9 | 36:26.24 | 5:19.60 | 163974 | 187958 10 | 41:46.09 | 4:22.07 | 187959 | 207615 11 | 46:08.16 | 5:13.32 | 207616 | 231122
Range status and errors
Selected range
Filename C:\CDRip by Deminbek\Brainstorm - Liquid Monster [Metal Blade, 3984-14526-2, EU].wav
Peak level 98.9 % Extraction speed 7.2 X Range quality 99.9 % Test CRC 7A2E8B18 Copy CRC 7A2E8B18 Copy OK
No errors occurred
AccurateRip summary
Track 1 accurately ripped (confidence 3) [C1B5AE3C] (AR v1)Track 2 accurately ripped (confidence 3) [8E838D87] (AR v1)Track 3 accurately ripped (confidence 3) [9FEA5811] (AR v1)Track 4 accurately ripped (confidence 3) [8697529B] (AR v1)Track 5 accurately ripped (confidence 3) [5BA11A14] (AR v1)Track 6 accurately ripped (confidence 3) [D6D02F73] (AR v1)Track 7 accurately ripped (confidence 3) [12F28FBB] (AR v1)Track 8 accurately ripped (confidence 3) [D5248265] (AR v1)Track 9 accurately ripped (confidence 3) [C978ED9F] (AR v1)Track 10 accurately ripped (confidence 3) [58B8287A] (AR v1)Track 11 accurately ripped (confidence 3) [4FC48D47] (AR v1)
All tracks accurately ripped
End of status report
---- CUETools DB Plugin V2.1.3
[CTDB TOCID: 5fJBCP.zTFRKbPdS9OAr_Z9S7DU-] found, Submit result: 5fJBCP.zTFRKbPdS9OAr_Z9S7DU- has been confirmed[5008b0ea] (15/20) No match[42e6f1ea] (05/20) Accurately ripped
==== Log checksum BF49F168C835572BC55566FC7D51F9FEAFE0080FC27228A4A91956F07C4B3880 ====
01. Falling Spiral Down (4:34)
02. Fire Walk With Me (4:25)
03. Stained With Sin (3:38)
04. Redemption In Your Eyes (4:26)
05. End In Sorrow (4:48)
06. How Do You Feel (3:48)
07. Protect Me From Myself (4:42)
08. Surrounding Walls (4:09)
09. Frozen (4:37)
10. All Alone (4:14)
11. Crawling In Chains (Bonus Track) (3:47)
12. Hold Tight (Bonus Track) (4:06)

Лог создания рипа

EAC extraction logfile from 23. August 2008, 13:55 for CDbrainstorm / downburst (euroepan limited edition)
Used drive : HL-DT-STDVD-ROM GDR8163B Adapter: 0 ID: 1Read mode : Secure with NO C2, accurate stream, disable cacheRead offset correction : 102Overread into Lead-In and Lead-Out : No
Used output format : C:\Archivos de programa\Exact Audio Copy\MAC.EXE (Monkey's Audio Lossless Encoder) High Lossless Compression
Other options : Fill up missing offset samples with silence : Yes Delete leading and trailing silent blocks : No Native Win32 interface for Win NT & 2000
Range status and errorsSelected range Filename F:\MeTaLMaDNeSS.TeaM\brainstorm - [2008] downburst (european limited edition)\CDImage.wav
Peak level 98.8 % Range quality 99.9 % CRC CD95F228 Copy OK
No errors occured
End of status report
01. Forsake What I Believed (6:32)
02. Shiver (3:21)
03. The Conjunction Of 7 Planets (6:34)
04. Cross The Line (5:04)
05. Nailed Down Dreams (5:38)
06. Blood Still Stains (4:11)
07. Ahimsa (4:24)
08. The Final Stages Of Decay (6:28)
09. Victim (4:18)
10. When No One Cares (3:21)
11. Would You (5:13)
12. Seems To Be Perfect (4:22)
13. Too Late To Deny (4:33)

Лог создания рипа

Exact Audio Copy V0.99 prebeta 4 from 23. January 2008
EAC extraction logfile from 22. October 2009, 14:16
Brainstorm / Memorial Roots (Limited Edition)
Used drive : ATAPI DVD A DH20A4P Adapter: 3 ID: 0
Read mode : SecureUtilize accurate stream : YesDefeat audio cache : YesMake use of C2 pointers : No
Read offset correction : 6Overread into Lead-In and Lead-Out : NoFill up missing offset samples with silence : YesDelete leading and trailing silent blocks : NoNull samples used in CRC calculations : YesUsed interface : Installed external ASPI interface
Used output format : Monkey's Audio Lossless EncoderSelected bitrate : High Lossless CompressionQuality : HighAdd ID3 tag : YesCommand line compressor : C:\Program Files\Monkey's Audio\MAC.exe
TOC of the extracted CD
Track | Start | Length | Start sector | End sector --------------------------------------------------------- 1 | 0:00.00 | 6:31.42 | 0 | 29366 2 | 6:31.42 | 3:21.09 | 29367 | 44450 3 | 9:52.51 | 6:33.74 | 44451 | 73999 4 | 16:26.50 | 5:03.45 | 74000 | 96769 5 | 21:30.20 | 5:38.12 | 96770 | 122131 6 | 27:08.32 | 4:11.02 | 122132 | 140958 7 | 31:19.34 | 4:23.54 | 140959 | 160737 8 | 35:43.13 | 6:28.17 | 160738 | 189854 9 | 42:11.30 | 4:17.64 | 189855 | 209193 10 | 46:29.19 | 3:20.43 | 209194 | 224236 11 | 49:49.62 | 5:12.57 | 224237 | 247693 12 | 55:02.44 | 4:21.59 | 247694 | 267327 13 | 59:24.28 | 4:33.35 | 267328 | 287837
Range status and errors
Selected range
Filename D:\Download\Brainstorm - Memorial Roots (Limited Edition).wav
Peak level 100.0 % Range quality 100.0 % Copy CRC 4CB195A2 Copy OK
No errors occurred
AccurateRip summary
Track 1 not present in databaseTrack 2 not present in databaseTrack 3 not present in databaseTrack 4 not present in databaseTrack 5 not present in databaseTrack 6 not present in databaseTrack 7 not present in databaseTrack 8 not present in databaseTrack 9 not present in databaseTrack 10 not present in databaseTrack 11 not present in databaseTrack 12 not present in databaseTrack 13 not present in database
None of the tracks are present in the AccurateRip database
End of status report
01. Below The Line (6:41)
02. In The Blink Of An Eye (4:34)
03. Temple Of Stone (3:28)
04. In These Walls (5:24)
05. Still Insane (3:53)
06. Dark Life (4:12)
07. No Saint No Sinner (5:30)
08. Where Your Actions Lead You To Live (3:33)
09. A Life On Hold (3:11)
10. My Own Hell (5:31)
11. This Pain Is Mine (Bonus Track) (3:58)
12. The Heartless Spawn Of Seed (Bonus Track) (4:41)

Лог создания рипа

Exact Audio Copy V0.99 prebeta 4 from 23. January 2008
EAC extraction logfile from 5. October 2011, 11:48
Brainstorm / On The Spur Of The Moment
Used drive : ATAPI iHAP122 9 Adapter: 3 ID: 0
Read mode : SecureUtilize accurate stream : YesDefeat audio cache : YesMake use of C2 pointers : No
Read offset correction : 6Overread into Lead-In and Lead-Out : NoFill up missing offset samples with silence : YesDelete leading and trailing silent blocks : NoNull samples used in CRC calculations : YesUsed interface : Installed external ASPI interface
Used output format : User Defined EncoderSelected bitrate : 40 kBit/sQuality : HighAdd ID3 tag : NoCommand line compressor : C:\Program Files\Exact Audio Copy\flac.exeAdditional command line options : -6 -V %s
TOC of the extracted CD
Track | Start | Length | Start sector | End sector --------------------------------------------------------- 1 | 0:00.00 | 6:41.23 | 0 | 30097 2 | 6:41.23 | 4:33.55 | 30098 | 50627 3 | 11:15.03 | 3:28.32 | 50628 | 66259 4 | 14:43.35 | 5:24.31 | 66260 | 90590 5 | 20:07.66 | 3:53.10 | 90591 | 108075 6 | 24:01.01 | 4:12.35 | 108076 | 127010 7 | 28:13.36 | 5:29.67 | 127011 | 151752 8 | 33:43.28 | 3:32.39 | 151753 | 167691 9 | 37:15.67 | 3:11.19 | 167692 | 182035 10 | 40:27.11 | 5:30.58 | 182036 | 206843 11 | 45:57.69 | 3:58.10 | 206844 | 224703 12 | 49:56.04 | 4:41.28 | 224704 | 245806
Range status and errors
Selected range
Filename D:\Download\Brainstorm - On The Spur Of The Moment.wav
Peak level 100.0 % Range quality 100.0 % Copy CRC E1401402 Copy OK
No errors occurred
AccurateRip summary
Track 1 not present in databaseTrack 2 not present in databaseTrack 3 not present in databaseTrack 4 not present in databaseTrack 5 not present in databaseTrack 6 not present in databaseTrack 7 not present in databaseTrack 8 not present in databaseTrack 9 not present in databaseTrack 10 not present in databaseTrack 11 not present in databaseTrack 12 not present in database
None of the tracks are present in the AccurateRip database
End of status report

[Цитировать]



Показать сообщения:    

Текущее время: 04-Дек 05:00

Часовой пояс: UTC + 3


Вы не можете начинать темы
Вы не можете отвечать на сообщения
Вы не можете редактировать свои сообщения
Вы не можете удалять свои сообщения
Вы не можете голосовать в опросах
Вы не можете прикреплять файлы к сообщениям
Вы не можете скачивать файлы

!ВНИМАНИЕ!
Сайт не предоставляет электронные версии произведений, а занимается лишь коллекционированием и каталогизацией ссылок, присылаемых и публикуемых на форуме нашими читателями. Если вы являетесь правообладателем какого-либо представленного материала и не желаете, чтобы ссылка на него находилась в нашем каталоге, свяжитесь с нами, и мы незамедлительно удалим ее. Файлы для обмена на трекере предоставлены пользователями сайта, и администрация не несет ответственности за их содержание. Просьба не заливать файлы, защищенные авторскими правами, а также файлы нелегального содержания!