[ Сегодня идет свободное скачивание без начисления Download ]


Статистика раздачи
Нет
 
   
 
Top  
 
 
-ДИСКОГРАФИЯ- -Страна: USA
Жанр: Post-Thrash / Groove Metal
Аудио кодек: FLAC (*.flac)
Тип рипа: FLAC (image + .cue), (track + .cue: what.cd)
Лирика: Violence, Domination, Respect, Inner Struggles
Битрейт аудио: lossless
Источник: CD's из личных коллекций deminbek, burzzum, LordSeth(MeTaLMaDNeSS.TeaM)-

Треклист

01. Davidian (4:56)
02. Old (4:05)
03. A Thousand Lies (6:14)
04. None But My Own (6:14)
05. The Rage To Overcome (4:47)
06. Death Church (6:33)
07. A Nation On Fire (5:34)
08. Blood For Blood (3:40)
09. I'm Your God Now (5:51)
10. Real Eyes, Realize, Real Lies (2:45)
11. Block (5:04)
12. Alan's On Fire (4:02)
13. Davidian (Live) (7:26)
14. Hard Times (Live) (2:27)

Лог создания рипа

Exact Audio Copy V0.99 prebeta 4 from 23. January 2008
EAC extraction logfile from 13. November 2008, 15:05
Machine Head / Burn My Eyes
Used drive : HL-DT-STCD-RW GCE-8481B Adapter: 1 ID: 1
Read mode : SecureUtilize accurate stream : YesDefeat audio cache : YesMake use of C2 pointers : No
Read offset correction : 6Overread into Lead-In and Lead-Out : NoFill up missing offset samples with silence : YesDelete leading and trailing silent blocks : NoNull samples used in CRC calculations : YesUsed interface : Native Win32 interface for Win NT & 2000Gap handling : Appended to previous track
Used output format : User Defined EncoderSelected bitrate : 1024 kBit/sQuality : HighAdd ID3 tag : NoCommand line compressor : C:\Program Files\FLAC\flac.exeAdditional command line options : -V -8 -T "artist=%a" -T "title=%t" -T "album=%g" -T "date=%y" -T "tracknumber=%n" -T "genre=%m" %s
TOC of the extracted CD
Track | Start | Length | Start sector | End sector --------------------------------------------------------- 1 | 0:00.00 | 4:56.00 | 0 | 22199 2 | 4:56.00 | 4:05.37 | 22200 | 40611 3 | 9:01.37 | 6:13.38 | 40612 | 68624 4 | 15:15.00 | 6:14.30 | 68625 | 96704 5 | 21:29.30 | 4:46.67 | 96705 | 118221 6 | 26:16.22 | 6:32.60 | 118222 | 147681 7 | 32:49.07 | 5:33.38 | 147682 | 172694 8 | 38:22.45 | 3:40.30 | 172695 | 189224 9 | 42:03.00 | 5:50.45 | 189225 | 215519 10 | 47:53.45 | 2:45.18 | 215520 | 227912 11 | 50:38.63 | 5:04.12 | 227913 | 250724 12 | 55:43.00 | 4:02.00 | 250725 | 268874 13 | 59:45.00 | 7:26.00 | 268875 | 302324 14 | 67:11.00 | 2:27.00 | 302325 | 313349
Track 1
Filename C:\01 - Davidian.wav
Pre-gap length 0:00:02.00
Peak level 98.8 % Track quality 100.0 % Test CRC 2AC813AC Copy CRC 2AC813AC Copy OK
Track 2
Filename C:\02 - Old.wav
Peak level 98.8 % Track quality 100.0 % Test CRC 0C6000C6 Copy CRC 0C6000C6 Copy OK
Track 3
Filename C:\03 - A Thousand Lies.wav
Peak level 98.8 % Track quality 100.0 % Test CRC D8A95CEC Copy CRC D8A95CEC Copy OK
Track 4
Filename C:\04 - None But My Own.wav
Peak level 98.8 % Track quality 100.0 % Test CRC 992EC198 Copy CRC 992EC198 Copy OK
Track 5
Filename C:\05 - The Rage To Overcome.wav
Peak level 98.8 % Track quality 99.9 % Test CRC 1A489476 Copy CRC 1A489476 Copy OK
Track 6
Filename C:\06 - Death Church.wav
Peak level 98.8 % Track quality 99.9 % Test CRC C8F25BB5 Copy CRC C8F25BB5 Copy OK
Track 7
Filename C:\07 - A Nation On Fire.wav
Peak level 98.8 % Track quality 100.0 % Test CRC 1780866B Copy CRC 1780866B Copy OK
Track 8
Filename C:\08 - Blood For Blood.wav
Peak level 98.8 % Track quality 100.0 % Test CRC 6E1B7BEC Copy CRC 6E1B7BEC Copy OK
Track 9
Filename C:\09 - I'm Your God Now.wav
Peak level 98.8 % Track quality 100.0 % Test CRC 3E95D68E Copy CRC 3E95D68E Copy OK
Track 10
Filename C:\10 - Real Eyes, Realize, Real Lies.wav
Peak level 98.8 % Track quality 100.0 % Test CRC 0CB37C8F Copy CRC 0CB37C8F Copy OK
Track 11
Filename C:\11 - Block.wav
Peak level 98.8 % Track quality 99.9 % Test CRC 547997E9 Copy CRC 547997E9 Copy OK
Track 12
Filename C:\12 - Alan's On Fire.wav
Pre-gap length 0:00:05.00
Peak level 98.8 % Track quality 100.0 % Test CRC 7FADD134 Copy CRC 7FADD134 Copy OK
Track 13
Filename C:\13 - Davidian (Live).wav
Pre-gap length 0:00:03.00
Peak level 98.8 % Track quality 100.0 % Test CRC 405FCCFC Copy CRC 405FCCFC Copy OK
Track 14
Filename C:\14 - Hard Times (Live).wav
Pre-gap length 0:00:02.00
Peak level 98.8 % Track quality 100.0 % Test CRC F72E12D8 Copy CRC F72E12D8 Copy OK
No errors occurred
End of status report
01. Davidian (4:56)
02. Old (4:06)
03. A Thousand Lies (6:14)
04. None But My Own (6:15)
05. The Rage To Overcome (4:47)
06. Death Church (6:33)
07. A Nation On Fire (5:33)
08. Blood For Blood (3:41)
09. I'm Your God Now (5:51)
10. Real Eyes, Realize, Real Lies (2:45)
11. Block (4:59)

Лог создания рипа

Exact Audio Copy V0.99 prebeta 5 from 4. May 2009
EAC extraction logfile from 27. June 2009, 11:00
Machine Head / Burn My Eyes
Used drive : ASUS DVD-E616A3T Adapter: 1 ID: 0
Read mode : SecureUtilize accurate stream : YesDefeat audio cache : YesMake use of C2 pointers : No
Read offset correction : 6Overread into Lead-In and Lead-Out : NoFill up missing offset samples with silence : YesDelete leading and trailing silent blocks : NoNull samples used in CRC calculations : YesUsed interface : Installed external ASPI interface
Used output format : Monkey's Audio Lossless EncoderSelected bitrate : High Lossless CompressionQuality : HighAdd ID3 tag : YesCommand line compressor : C:\Program Files\Monkey's Audio\MAC.exe
TOC of the extracted CD
Track | Start | Length | Start sector | End sector --------------------------------------------------------- 1 | 0:00.00 | 4:56.37 | 0 | 22236 2 | 4:56.37 | 4:05.45 | 22237 | 40656 3 | 9:02.07 | 6:13.40 | 40657 | 68671 4 | 15:15.47 | 6:14.50 | 68672 | 96771 5 | 21:30.22 | 4:46.53 | 96772 | 118274 6 | 26:17.00 | 6:33.02 | 118275 | 147751 7 | 32:50.02 | 5:33.10 | 147752 | 172736 8 | 38:23.12 | 3:40.50 | 172737 | 189286 9 | 42:03.62 | 5:50.40 | 189287 | 215576 10 | 47:54.27 | 2:45.23 | 215577 | 227974 11 | 50:39.50 | 4:59.00 | 227975 | 250399
Range status and errors
Selected range
Filename D:\Music\MACHINE HEAD [1994] [CD] Burn My Eyes\MACHINE HEAD - Burn My Eyes.wav
Peak level 100.0 % Range quality 100.0 % Copy CRC 41631A10 Copy OK
No errors occurred
AccurateRip summary
Track 1 accurately ripped (confidence 24) [A0816183]Track 2 accurately ripped (confidence 24) [E230FF02]Track 3 accurately ripped (confidence 25) [74A5389A]Track 4 accurately ripped (confidence 24) [2D4B1F7C]Track 5 accurately ripped (confidence 23) [5E6BE9F5]Track 6 accurately ripped (confidence 24) [51B462E8]Track 7 accurately ripped (confidence 24) [7AC9E823]Track 8 accurately ripped (confidence 22) [AD202800]Track 9 accurately ripped (confidence 23) [02AE13DD]Track 10 accurately ripped (confidence 22) [59F1685B]Track 11 accurately ripped (confidence 22) [449BD901]
All tracks accurately ripped
End of status report
01. Ten Ton Hammer (4:14)
02. Take My Scars (4:20)
03. Struck a Nerve (3:34)
04. Down to None (5:28)
05. The Frontlines (5:51)
06. Spine (6:38)
07. Bay of Pigs (3:46)
08. Violate (7:20)
09. Blistering (4:58)
10. Blood of the Zodiac (6:41)
11. The Possibillity Of Life's Destruction [Bonus Track] (1:31)
12. My Misery [Bonus Track] (4:42)
13. Colors [Bonus Track] (4:41)

Лог создания рипа

Exact Audio Copy V1.0 beta 3 from 29. August 2011
EAC extraction logfile from 20. January 2012, 10:04
Machine Head / The More Things Change...
Used drive : PIONEER DVD-RW DVR-112D Adapter: 1 ID: 0
Read mode : SecureUtilize accurate stream : YesDefeat audio cache : YesMake use of C2 pointers : No
Read offset correction : 48Overread into Lead-In and Lead-Out : NoFill up missing offset samples with silence : YesDelete leading and trailing silent blocks : NoNull samples used in CRC calculations : YesUsed interface : Installed external ASPI interface
Used output format : User Defined EncoderSelected bitrate : 1024 kBit/sQuality : HighAdd ID3 tag : NoCommand line compressor : C:\Program Files\Exact Audio Copy\FLAC\FLAC.EXEAdditional command line options : -V -8 -T "Date=%year%" -T "Genre=%genre%" %source%
TOC of the extracted CD
Track | Start | Length | Start sector | End sector --------------------------------------------------------- 1 | 0:00.00 | 4:13.60 | 0 | 19034 2 | 4:13.60 | 4:19.62 | 19035 | 38521 3 | 8:33.47 | 3:33.65 | 38522 | 54561 4 | 12:07.37 | 5:28.23 | 54562 | 79184 5 | 17:35.60 | 5:50.72 | 79185 | 105506 6 | 23:26.57 | 6:37.55 | 105507 | 135336 7 | 30:04.37 | 3:46.10 | 135337 | 152296 8 | 33:50.47 | 7:20.10 | 152297 | 185306 9 | 41:10.57 | 4:58.30 | 185307 | 207686 10 | 46:09.12 | 6:41.25 | 207687 | 237786 11 | 52:50.37 | 1:31.33 | 237787 | 244644 12 | 54:21.70 | 4:42.10 | 244645 | 265804 13 | 59:04.05 | 4:41.17 | 265805 | 286896 14 | 66:17.22 | 7:48.24 | 298297 | 333420
Range status and errors
Selected range
Filename C:\CDRip by Deminbek\Machine Head - The More Things Change... [RRCY-1019].wav
Peak level 98.8 % Extraction speed 8.0 X Range quality 99.9 % Test CRC A80E0B21 Copy CRC A80E0B21 Copy OK
No errors occurred
AccurateRip summary
Track 1 not present in databaseTrack 2 not present in databaseTrack 3 not present in databaseTrack 4 cannot be verified as accurate (confidence 1) [991E3E60], AccurateRip returned [40B299F8] (AR v2)Track 5 cannot be verified as accurate (confidence 1) [0E1D7AD2], AccurateRip returned [C98B6BEA] (AR v2)Track 6 cannot be verified as accurate (confidence 1) [AEC8431B], AccurateRip returned [E2AD49A6] (AR v2)Track 7 cannot be verified as accurate (confidence 1) [2131CBD8], AccurateRip returned [F0D1DEE0] (AR v2)Track 8 not present in databaseTrack 9 cannot be verified as accurate (confidence 1) [DB09F4BA], AccurateRip returned [FE3564DA] (AR v2)Track 10 not present in databaseTrack 11 not present in databaseTrack 12 not present in databaseTrack 13 not present in database
5 трек(и) не удалось проверить на точность 8 трек(и) не содержатся в базе AccurateRip
No tracks could be verified as accurateYou may have a different pressing from the one(s) in the database
End of status report
==== Log checksum BC5D9F5C3E38C83A880AA1CDF60543637E6EAE6B16B9DABAA92BB672971E2A94 ====
01. Enter The Phoenix (0:53)
02. Desire To Fire (4:49)
03. Nothing Left (4:05)
04. The Blood, The Sweat, The Tears (4:11)
05. Silver (3:52)
06. From This Day (3:56)
07. Exhale The Vile (4:57)
08. Message In A Bottle (3:32)
09. Devil With The King's Card (4:05)
10. I Defy (3:42)
11. Five (5:18)
12. The Burning Red (6:44)

Лог создания рипа

Exact Audio Copy V1.0 beta 3 from 29. August 2011
EAC extraction logfile from 3. May 2012, 21:18
Machine Head / The Burning Red [RR 8651-2, Germany]
Used drive : PIONEER DVD-RW DVR-112D Adapter: 1 ID: 0
Read mode : SecureUtilize accurate stream : YesDefeat audio cache : YesMake use of C2 pointers : No
Read offset correction : 48Overread into Lead-In and Lead-Out : NoFill up missing offset samples with silence : YesDelete leading and trailing silent blocks : NoNull samples used in CRC calculations : YesUsed interface : Installed external ASPI interface
Used output format : User Defined EncoderSelected bitrate : 1024 kBit/sQuality : HighAdd ID3 tag : NoCommand line compressor : C:\Program Files\Exact Audio Copy\FLAC\FLAC.EXEAdditional command line options : -V -8 -T "Date=%year%" -T "Genre=%genre%" %source%
TOC of the extracted CD
Track | Start | Length | Start sector | End sector --------------------------------------------------------- 1 | 0:00.00 | 0:53.12 | 0 | 3986 2 | 0:53.12 | 4:48.45 | 3987 | 25631 3 | 5:41.57 | 4:04.50 | 25632 | 43981 4 | 9:46.32 | 4:11.00 | 43982 | 62806 5 | 13:57.32 | 3:51.48 | 62807 | 80179 6 | 17:49.05 | 3:56.37 | 80180 | 97916 7 | 21:45.42 | 4:56.65 | 97917 | 120181 8 | 26:42.32 | 3:31.73 | 120182 | 136079 9 | 30:14.30 | 4:04.47 | 136080 | 154426 10 | 34:19.02 | 3:41.70 | 154427 | 171071 11 | 38:00.72 | 5:17.65 | 171072 | 194911 12 | 43:18.62 | 6:43.53 | 194912 | 225189
Range status and errors
Selected range
Filename E:\CDRip by Deminbek\Machine Head - The Burning Red [RR 8651-2, Germany].wav
Peak level 100.0 % Extraction speed 7.0 X Range quality 99.9 % Test CRC 1B14A253 Copy CRC 1B14A253 Copy OK
No errors occurred
AccurateRip summary
Track 1 accurately ripped (confidence 4) [BD8C17FB] (AR v1)Track 2 accurately ripped (confidence 4) [6BD851FA] (AR v1)Track 3 accurately ripped (confidence 4) [AF5F36D4] (AR v1)Track 4 accurately ripped (confidence 4) [5C7DB474] (AR v1)Track 5 accurately ripped (confidence 4) [20BC839A] (AR v1)Track 6 accurately ripped (confidence 4) [342BC783] (AR v1)Track 7 accurately ripped (confidence 4) [66B02CAD] (AR v1)Track 8 accurately ripped (confidence 4) [762FEE86] (AR v1)Track 9 accurately ripped (confidence 4) [EBC37513] (AR v1)Track 10 accurately ripped (confidence 4) [CB209318] (AR v1)Track 11 accurately ripped (confidence 4) [A2345805] (AR v1)Track 12 accurately ripped (confidence 4) [B6B0F3FE] (AR v1)
All tracks accurately ripped
End of status report
---- CUETools DB Plugin V2.1.3
[CTDB TOCID: hOorSQLt.bRlkDtMnkW2mIEM8K4-] found, Submit result: hOorSQLt.bRlkDtMnkW2mIEM8K4- has been confirmed[8d25b926] (20/21) Accurately ripped[11b30c01] (01/21) No match
==== Log checksum 45D522C6D0F07F626041B0664D7BBDCD4651366865AE874BF8676BB27CA91B93 ====
01. Enter The Phoenix (0:53)
02. Desire To Fire (4:49)
03. Nothing Left (4:05)
04. The Blood, The Sweat, The Tears (4:11)
05. Silver (3:52)
06. From This Day (3:56)
07. Exhale The Vile (4:57)
08. Message In A Bottle (3:32)
09. Devil With The King's Card (4:07)
10. House Of Suffering (2:11)
11. Alcoholocaust (3:48)
12. I Defy (3:42)
13. Five (5:18)
14. The Burning Red (6:44)

Лог создания рипа

Exact Audio Copy V0.99 prebeta 4 from 23. January 2008
EAC extraction logfile from 22. August 2008, 15:12
Machine Head / The Burning Red
Used drive : HL-DT-STCD-RW GCE-8481B Adapter: 1 ID: 1
Read mode : SecureUtilize accurate stream : YesDefeat audio cache : YesMake use of C2 pointers : No
Read offset correction : 6Overread into Lead-In and Lead-Out : NoFill up missing offset samples with silence : YesDelete leading and trailing silent blocks : NoNull samples used in CRC calculations : YesUsed interface : Native Win32 interface for Win NT & 2000Gap handling : Appended to previous track
Used output format : User Defined EncoderSelected bitrate : 1024 kBit/sQuality : HighAdd ID3 tag : NoCommand line compressor : C:\Program Files\FLAC\flac.exeAdditional command line options : -V -8 -T "artist=%a" -T "title=%t" -T "album=%g" -T "date=%y" -T "tracknumber=%n" -T "genre=%m" %s
TOC of the extracted CD
Track | Start | Length | Start sector | End sector --------------------------------------------------------- 1 | 0:00.00 | 0:53.12 | 0 | 3986 2 | 0:53.12 | 4:48.45 | 3987 | 25631 3 | 5:41.57 | 4:04.50 | 25632 | 43981 4 | 9:46.32 | 4:11.00 | 43982 | 62806 5 | 13:57.32 | 3:51.48 | 62807 | 80179 6 | 17:49.05 | 3:56.37 | 80180 | 97916 7 | 21:45.42 | 4:56.65 | 97917 | 120181 8 | 26:42.32 | 3:31.73 | 120182 | 136079 9 | 30:14.30 | 4:06.42 | 136080 | 154571 10 | 34:20.72 | 2:10.48 | 154572 | 164369 11 | 36:31.45 | 3:47.55 | 164370 | 181449 12 | 40:19.25 | 3:41.70 | 181450 | 198094 13 | 44:01.20 | 5:17.62 | 198095 | 221931 14 | 49:19.07 | 6:43.55 | 221932 | 252211
Track 1
Filename C:\01 - Enter The Phoenix.wav
Pre-gap length 0:00:02.00
Peak level 52.0 % Track quality 100.0 % Test CRC 4780046D Copy CRC 4780046D Copy OK
Track 2
Filename C:\02 - Desire To Fire.wav
Peak level 100.0 % Track quality 100.0 % Test CRC F7A9B48A Copy CRC F7A9B48A Copy OK
Track 3
Filename C:\03 - Nothing Left.wav
Peak level 99.8 % Track quality 100.0 % Test CRC A90EAB97 Copy CRC A90EAB97 Copy OK
Track 4
Filename C:\04 - The Blood, The Sweat, The Tears.wav
Peak level 99.8 % Track quality 100.0 % Test CRC 807D1212 Copy CRC 807D1212 Copy OK
Track 5
Filename C:\05 - Silver.wav
Pre-gap length 0:00:04.82
Peak level 99.8 % Track quality 100.0 % Test CRC 3F343AE5 Copy CRC 3F343AE5 Copy OK
Track 6
Filename C:\06 - From This Day.wav
Pre-gap length 0:00:01.93
Peak level 99.8 % Track quality 100.0 % Test CRC 43179392 Copy CRC 43179392 Copy OK
Track 7
Filename C:\07 - Exhale The Vile.wav
Pre-gap length 0:00:03.16
Peak level 99.8 % Track quality 99.9 % Test CRC 4F5F839D Copy CRC 4F5F839D Copy OK
Track 8
Filename C:\08 - Message In A Bottle.wav
Pre-gap length 0:00:03.66
Peak level 99.8 % Track quality 100.0 % Test CRC DA6AC1C8 Copy CRC DA6AC1C8 Copy OK
Track 9
Filename C:\09 - Devil With The King's Card.wav
Pre-gap length 0:00:01.77
Peak level 99.8 % Track quality 100.0 % Test CRC 85468E7B Copy CRC 85468E7B Copy OK
Track 10
Filename C:\10 - House Of Suffering.wav
Peak level 99.8 % Track quality 100.0 % Test CRC 31DDF449 Copy CRC 31DDF449 Copy OK
Track 11
Filename C:\11 - Alcoholocaust.wav
Peak level 99.8 % Track quality 100.0 % Test CRC B15BD4A1 Copy CRC B15BD4A1 Copy OK
Track 12
Filename C:\12 - I Defy.wav
Peak level 99.8 % Track quality 100.0 % Test CRC 69BFE7B6 Copy CRC 69BFE7B6 Copy OK
Track 13
Filename C:\13 - Five.wav
Pre-gap length 0:00:04.04
Peak level 99.8 % Track quality 100.0 % Test CRC 465DAE7D Copy CRC 465DAE7D Copy OK
Track 14
Filename C:\14 - The Burning Red.wav
Peak level 99.8 % Track quality 100.0 % Test CRC E8D7B0DE Copy CRC E8D7B0DE Copy OK
No errors occurred
End of status report
01. Declaration (1:11)
02. Bulldozer (4:35)
03. White-Knuckle Blackout! (3:15)
04. Crashing Around You (3:14)
05. Kick You When You're Down (4:01)
06. Only The Names (6:08)
07. All In Your Head (4:06)
09. Brown Acid (0:59)
10. Nausea (4:24)
11. Blank Generation (6:38)
12. Trephination (4:58)
13. Deafening Silence (5:33)
14. Supercharger (3:48)
15. Hole In The Sky (3:33)
16. Ten Fold (4:53)
17. The Blood, The Sweat, The Tears (Live Version) (4:35)
18. Desire To Fire (Live Version) (4:37)

Лог создания рипа

Exact Audio Copy V1.0 beta 3 from 29. August 2011
EAC extraction logfile from 20. January 2012, 9:43
Machine Head / Supercharger
Used drive : PIONEER DVD-RW DVR-112D Adapter: 1 ID: 0
Read mode : SecureUtilize accurate stream : YesDefeat audio cache : YesMake use of C2 pointers : No
Read offset correction : 48Overread into Lead-In and Lead-Out : NoFill up missing offset samples with silence : YesDelete leading and trailing silent blocks : NoNull samples used in CRC calculations : YesUsed interface : Installed external ASPI interface
Used output format : User Defined EncoderSelected bitrate : 1024 kBit/sQuality : HighAdd ID3 tag : NoCommand line compressor : C:\Program Files\Exact Audio Copy\FLAC\FLAC.EXEAdditional command line options : -V -8 -T "Date=%year%" -T "Genre=%genre%" %source%
TOC of the extracted CD
Track | Start | Length | Start sector | End sector --------------------------------------------------------- 1 | 0:00.00 | 1:11.17 | 0 | 5341 2 | 1:11.17 | 4:35.13 | 5342 | 25979 3 | 5:46.30 | 3:14.69 | 25980 | 40598 4 | 9:01.24 | 3:13.67 | 40599 | 55140 5 | 12:15.16 | 4:01.27 | 55141 | 73242 6 | 16:16.43 | 6:07.41 | 73243 | 100808 7 | 22:24.09 | 4:05.55 | 100809 | 119238 8 | 26:29.64 | 3:48.21 | 119239 | 136359 9 | 30:18.10 | 0:59.23 | 136360 | 140807 10 | 31:17.33 | 4:23.41 | 140808 | 160573 11 | 35:40.74 | 6:38.09 | 160574 | 190432 12 | 42:19.08 | 4:58.34 | 190433 | 212816 13 | 47:17.42 | 5:33.30 | 212817 | 237821 14 | 52:50.72 | 3:48.06 | 237822 | 254927 15 | 56:39.03 | 3:32.57 | 254928 | 270884 16 | 60:11.60 | 4:52.70 | 270885 | 292854 17 | 65:04.55 | 4:34.56 | 292855 | 313460 18 | 69:39.36 | 4:37.20 | 313461 | 334255
Range status and errors
Selected range
Filename C:\CDRip by Deminbek\Machine Head - Supercharger [RRCY-11150].wav
Peak level 100.0 % Extraction speed 8.3 X Range quality 99.9 % Test CRC 04EB718F Copy CRC 04EB718F Copy OK
No errors occurred
AccurateRip summary
Track 1 cannot be verified as accurate (confidence 44) [F13310A9], AccurateRip returned [05087790] (AR v2)Track 2 cannot be verified as accurate (confidence 44) [35CE1173], AccurateRip returned [EF6D0277] (AR v2)Track 3 cannot be verified as accurate (confidence 43) [CEDCDE2D], AccurateRip returned [08ED841F] (AR v2)Track 4 cannot be verified as accurate (confidence 43) [47AA444A], AccurateRip returned [2A669075] (AR v2)Track 5 cannot be verified as accurate (confidence 44) [01D35B35], AccurateRip returned [0364F7F1] (AR v2)Track 6 cannot be verified as accurate (confidence 44) [6D429795], AccurateRip returned [46EA731A] (AR v2)Track 7 cannot be verified as accurate (confidence 43) [1FFD9413], AccurateRip returned [2C98E3B6] (AR v2)Track 8 cannot be verified as accurate (confidence 42) [DF84E6E4], AccurateRip returned [A0D35668] (AR v2)Track 9 cannot be verified as accurate (confidence 43) [802A96C5], AccurateRip returned [8461607A] (AR v2)Track 10 cannot be verified as accurate (confidence 43) [1DC640C5], AccurateRip returned [EFE345C5] (AR v2)Track 11 cannot be verified as accurate (confidence 42) [72F4CE0C], AccurateRip returned [1E8C6F18] (AR v2)Track 12 cannot be verified as accurate (confidence 42) [6C756009], AccurateRip returned [6F79E062] (AR v2)Track 13 cannot be verified as accurate (confidence 42) [CE97AF8B], AccurateRip returned [551B805B] (AR v2)Track 14 cannot be verified as accurate (confidence 42) [2918BF9B], AccurateRip returned [FAF7FEFC] (AR v2)Track 15 cannot be verified as accurate (confidence 42) [FEF63C10], AccurateRip returned [6A63E7E9] (AR v2)Track 16 cannot be verified as accurate (confidence 42) [B3DC22ED], AccurateRip returned [ED54400E] (AR v2)Track 17 cannot be verified as accurate (confidence 42) [ED870476], AccurateRip returned [81B32A2C] (AR v2)Track 18 cannot be verified as accurate (confidence 41) [BD9260C6], AccurateRip returned [2BE0371D] (AR v2)
No tracks could be verified as accurateYou may have a different pressing from the one(s) in the database
End of status report
==== Log checksum 72D86B1C656E66C06C6B3DE795F0C2B1D2DD26355909B2CCD1B00B23A8554C06 ====
01. Bulldozer (5:02)
02. The Blood, The Sweat, The Tears (4:16)
03. Ten Ton Hammer (5:01)
04. Old (5:00)
05. Crashing Around You (5:31)
06. Take My Scars (5:05)
07. I'm Your God Now (6:23)
08. None But My Own (7:17)
09. From This Day (5:10)
10. American High (3:34)
11. Nothing Left (5:33)
12. The Burning Red (6:10)
13. Davidian (6:01)
14. Supercharger (7:33)

Лог создания рипа

Exact Audio Copy V1.0 beta 3 from 29. August 2011
EAC extraction logfile from 22. April 2012, 19:23
Machine Head / Hellalive [RR 8437-2, USA]
Used drive : PIONEER DVD-RW DVR-112D Adapter: 1 ID: 0
Read mode : SecureUtilize accurate stream : YesDefeat audio cache : YesMake use of C2 pointers : No
Read offset correction : 48Overread into Lead-In and Lead-Out : NoFill up missing offset samples with silence : YesDelete leading and trailing silent blocks : NoNull samples used in CRC calculations : YesUsed interface : Installed external ASPI interface
Used output format : User Defined EncoderSelected bitrate : 1024 kBit/sQuality : HighAdd ID3 tag : NoCommand line compressor : C:\Program Files\Exact Audio Copy\FLAC\FLAC.EXEAdditional command line options : -V -8 -T "Date=%year%" -T "Genre=%genre%" %source%
TOC of the extracted CD
Track | Start | Length | Start sector | End sector --------------------------------------------------------- 1 | 0:00.00 | 5:01.60 | 0 | 22634 2 | 5:01.60 | 4:16.02 | 22635 | 41836 3 | 9:17.62 | 5:01.05 | 41837 | 64416 4 | 14:18.67 | 4:59.71 | 64417 | 86912 5 | 19:18.63 | 5:31.08 | 86913 | 111745 6 | 24:49.71 | 5:04.43 | 111746 | 134588 7 | 29:54.39 | 6:22.62 | 134589 | 163300 8 | 36:17.26 | 7:16.52 | 163301 | 196052 9 | 43:34.03 | 5:09.72 | 196053 | 219299 10 | 48:44.00 | 3:34.05 | 219300 | 235354 11 | 52:18.05 | 5:33.36 | 235355 | 260365 12 | 57:51.41 | 6:09.49 | 260366 | 288089 13 | 64:01.15 | 6:00.41 | 288090 | 315130 14 | 70:01.56 | 7:32.59 | 315131 | 349089
Range status and errors
Selected range
Filename C:\CDRip by Deminbek\Machine Head - Hellalive [RR 8437-2, USA].wav
Peak level 100.0 % Extraction speed 8.4 X Range quality 100.0 % Test CRC 1E8C0E5C Copy CRC 1E8C0E5C Copy OK
No errors occurred
AccurateRip summary
Track 1 accurately ripped (confidence 16) [DDA19A47] (AR v1)Track 2 accurately ripped (confidence 16) [5DF2EAFE] (AR v1)Track 3 accurately ripped (confidence 16) [6398EB21] (AR v1)Track 4 accurately ripped (confidence 16) [D67AAAF7] (AR v1)Track 5 accurately ripped (confidence 16) [A6B3E5B2] (AR v1)Track 6 accurately ripped (confidence 16) [34618BFB] (AR v1)Track 7 accurately ripped (confidence 16) [D24FF028] (AR v1)Track 8 accurately ripped (confidence 16) [F42CF168] (AR v1)Track 9 accurately ripped (confidence 16) [309F58F0] (AR v1)Track 10 accurately ripped (confidence 16) [DDF3A241] (AR v1)Track 11 accurately ripped (confidence 16) [5C0E84D5] (AR v1)Track 12 accurately ripped (confidence 16) [19588FDA] (AR v1)Track 13 accurately ripped (confidence 16) [3F6461F5] (AR v1)Track 14 accurately ripped (confidence 16) [E5B9EF40] (AR v1)
All tracks accurately ripped
End of status report
---- CUETools DB Plugin V2.1.3
[CTDB TOCID: 65_l.rpF54IRDIlpEHJkcF5XUKo-] found, Submit result: 65_l.rpF54IRDIlpEHJkcF5XUKo- has been confirmed[20faecb6] (18/18) Accurately ripped
==== Log checksum 88F2E460870E08710818B6A1D6B6E60A0D2C1C5298CB27BA5C2EB4FF5B7997D2 ====
01. Imperium (6:42)
02. Bite The Bullet (3:22)
03. Left Unfinished (5:46)
04. Elegy (3:56)
05. In The Presence Of My Enemies (7:07)
06. Days Turn Blue To Gray (5:30)
07. Vim (5:13)
08. All Falls Down (4:30)
09. Wipe The Tears (3:55)
10. Descend The Shades Of Night (7:46)
01. Bite The Bullet (Demo) (3:51)
02. Left Unfinished (Demo) (4:29)
03. Elegy (Demo) (3:47)
04. All Falls Down (Demo) (4:29)
05. Descend The Shades Of Night (Demo) (3:53)

Лог создания рипа

Exact Audio Copy V0.99 prebeta 4 from 23. January 2008
EAC extraction logfile from 24. September 2008, 3:07
Machine Head / Through The Ashes Of Empires
Used drive : HL-DT-STCD-RW GCE-8481B Adapter: 1 ID: 1
Read mode : SecureUtilize accurate stream : YesDefeat audio cache : YesMake use of C2 pointers : No
Read offset correction : 6Overread into Lead-In and Lead-Out : NoFill up missing offset samples with silence : YesDelete leading and trailing silent blocks : NoNull samples used in CRC calculations : YesUsed interface : Native Win32 interface for Win NT & 2000Gap handling : Appended to previous track
Used output format : User Defined EncoderSelected bitrate : 1024 kBit/sQuality : HighAdd ID3 tag : NoCommand line compressor : C:\Program Files\FLAC\flac.exeAdditional command line options : -V -8 -T "artist=%a" -T "title=%t" -T "album=%g" -T "date=%y" -T "tracknumber=%n" -T "genre=%m" %s
TOC of the extracted CD
Track | Start | Length | Start sector | End sector --------------------------------------------------------- 1 | 0:00.00 | 6:41.52 | 0 | 30126 2 | 6:41.52 | 3:21.40 | 30127 | 45241 3 | 10:03.17 | 5:45.70 | 45242 | 71186 4 | 15:49.12 | 3:55.40 | 71187 | 88851 5 | 19:44.52 | 7:07.28 | 88852 | 120904 6 | 26:52.05 | 5:29.40 | 120905 | 145619 7 | 32:21.45 | 5:12.50 | 145620 | 169069 8 | 37:34.20 | 4:29.45 | 169070 | 189289 9 | 42:03.65 | 3:54.55 | 189290 | 206894 10 | 45:58.45 | 7:46.25 | 206895 | 241869
Track 1
Filename C:\01 - Imperium.wav
Pre-gap length 0:00:02.00
Peak level 100.0 % Track quality 100.0 % Test CRC 746421EA Copy CRC 746421EA Copy OK
Track 2
Filename C:\02 - Bite The Bullet.wav
Peak level 99.1 % Track quality 100.0 % Test CRC 8125B385 Copy CRC 8125B385 Copy OK
Track 3
Filename C:\03 - Left Unfinished.wav
Peak level 100.0 % Track quality 100.0 % Test CRC 783574FF Copy CRC 783574FF Copy OK
Track 4
Filename C:\04 - Elegy.wav
Peak level 98.8 % Track quality 100.0 % Test CRC E3460B61 Copy CRC E3460B61 Copy OK
Track 5
Filename C:\05 - In The Presence Of My Enemies.wav
Peak level 98.8 % Track quality 99.9 % Test CRC 25011B67 Copy CRC 25011B67 Copy OK
Track 6
Filename C:\06 - Days Turn Blue To Gray.wav
Pre-gap length 0:00:01.90
Peak level 100.0 % Track quality 100.0 % Test CRC 4FBE3FD3 Copy CRC 4FBE3FD3 Copy OK
Track 7
Filename C:\07 - Vim.wav
Pre-gap length 0:00:05.50
Peak level 98.8 % Track quality 100.0 % Test CRC 33C3F8C1 Copy CRC 33C3F8C1 Copy OK
Track 8
Filename C:\08 - All Falls Down.wav
Peak level 98.8 % Track quality 100.0 % Test CRC 95A7B586 Copy CRC 95A7B586 Copy OK
Track 9
Filename C:\09 - Wipe The Tears.wav
Peak level 98.8 % Track quality 100.0 % Test CRC 34BEA786 Copy CRC 34BEA786 Copy OK
Track 10
Filename C:\10 - Descend The Shades Of Night.wav
Pre-gap length 0:00:03.06
Peak level 98.8 % Track quality 100.0 % Test CRC B41F8DCE Copy CRC B41F8DCE Copy OK
No errors occurred
End of status report_________________________________________________________Exact Audio Copy V0.99 prebeta 4 from 23. January 2008
EAC extraction logfile from 24. September 2008, 3:22
Machine Head / Through The Ashes Of Empires
Used drive : HL-DT-STCD-RW GCE-8481B Adapter: 1 ID: 1
Read mode : SecureUtilize accurate stream : YesDefeat audio cache : YesMake use of C2 pointers : No
Read offset correction : 6Overread into Lead-In and Lead-Out : NoFill up missing offset samples with silence : YesDelete leading and trailing silent blocks : NoNull samples used in CRC calculations : YesUsed interface : Native Win32 interface for Win NT & 2000Gap handling : Appended to previous track
Used output format : User Defined EncoderSelected bitrate : 1024 kBit/sQuality : HighAdd ID3 tag : NoCommand line compressor : C:\Program Files\FLAC\flac.exeAdditional command line options : -V -8 -T "artist=%a" -T "title=%t" -T "album=%g" -T "date=%y" -T "tracknumber=%n" -T "genre=%m" %s
TOC of the extracted CD
Track | Start | Length | Start sector | End sector --------------------------------------------------------- 1 | 0:00.00 | 3:51.20 | 0 | 17344 2 | 3:51.20 | 4:29.22 | 17345 | 37541 3 | 8:20.42 | 3:46.58 | 37542 | 54549 4 | 12:07.25 | 4:28.50 | 54550 | 74699 5 | 16:36.00 | 3:53.37 | 74700 | 92211 6 | 23:01.37 | 23:35.09 | 103612 | 209745
Track 1
Filename C:\01 - Bite The Bullet (Demo).wav
Pre-gap length 0:00:02.00
Peak level 88.0 % Track quality 100.0 % Test CRC 5E4363B1 Copy CRC 5E4363B1 Copy OK
Track 2
Filename C:\02 - Left Unfinished (Demo).wav
Pre-gap length 0:00:01.00
Peak level 88.1 % Track quality 99.9 % Test CRC 438B6AA5 Copy CRC 438B6AA5 Copy OK
Track 3
Filename C:\03 - Elegy (Demo).wav
Pre-gap length 0:00:01.00
Peak level 89.1 % Track quality 99.9 % Test CRC 8F3B6D91 Copy CRC 8F3B6D91 Copy OK
Track 4
Filename C:\04 - All Falls Down (Demo).wav
Pre-gap length 0:00:02.00
Peak level 88.2 % Track quality 100.0 % Test CRC 69D4C2B9 Copy CRC 69D4C2B9 Copy OK
Track 5
Filename C:\05 - Descend The Shades Of Night (Demo).wav
Peak level 100.0 % Track quality 100.0 % Test CRC 95989A95 Copy CRC 95989A95 Copy OK
No errors occurred
End of status report

ВИДЕО

Имя файла: MACHINEHEAD.MPG
Размер файла: 42.8 MiB
Длительность: 4mn 17s
Общий битрейт: 1 396 Kbps
Видео: MPEG 1, 352x288 (4/3), 25.000 fps, 1 150 Kbps (0.441 bit/pixel)
Аудио: MP2, 44.1 KHz, 2 ch, 224 Kbps, CBR

Имя файла: THESESSIONS.mpg
Размер файла: 164 MiB
Длительность: 18mn 31s
Общий битрейт: 1 235 Kbps
Видео: MPEG 1, 368x288 (4/3), 25.000 fps, 1 098 Kbps (0.405 bit/pixel)
Аудио: MP2, 32.0 KHz, 2 ch, 112 Kbps, CBR
01. Imperium (6:42)
02. Bite The Bullet (3:22)
03. Left Unfinished (5:33)
04. Elegy (3:56)
05. In The Presence Of My Enemies (7:07)
06. Days Turn Blue To Gray (5:30)
07. Vim (5:12)
08. Seasons Wither (Bonus Track) (6:18)
09. All Falls Down (4:30)
10. Wipe The Tears (3:54)
11. Descend The Shades Of Night (7:45)

Лог создания рипа

EAC extraction logfile from 16. February 2007, 15:02 for CDMachine Head / Through The Ashes Of Empires (U.S. Release)
Used drive : LITE-ON LTR-24102M Adapter: 1 ID: 0Read mode : Secure with NO C2, accurate stream, disable cacheRead offset correction : 12Overread into Lead-In and Lead-Out : No
Used output format : C:\Program Files\FLAC\flac.exe (User Defined Encoder) 320 kBit/s Additional command line options : -V -8 -T "artist=%a" -T "title=%t" -T "album=%g" -T "date=%y" -T "tracknumber=%n" -T "genre=%m" %s
Other options : Fill up missing offset samples with silence : Yes Delete leading and trailing silent blocks : No Installed external ASPI interface
Track 1 Filename E:\My Music\Machine_Head-Through_The_Ashes_Of_Empires-2004-FLAC\01 - Imperium.wav
Pre-gap length 0:00:02.00
Peak level 100.0 % Track quality 100.0 % Test CRC F50EDD33 Copy CRC F50EDD33 Copy OK
Track 2 Filename E:\My Music\Machine_Head-Through_The_Ashes_Of_Empires-2004-FLAC\02 - Bite The Bullet.wav
Peak level 99.1 % Track quality 100.0 % Test CRC 9CB13DF9 Copy CRC 9CB13DF9 Copy OK
Track 3 Filename E:\My Music\Machine_Head-Through_The_Ashes_Of_Empires-2004-FLAC\03 - Left Unfinished.wav
Peak level 100.0 % Track quality 99.9 % Test CRC 701359FB Copy CRC 701359FB Copy OK
Track 4 Filename E:\My Music\Machine_Head-Through_The_Ashes_Of_Empires-2004-FLAC\04 - Elegy.wav
Peak level 98.8 % Track quality 100.0 % Test CRC 46EB4795 Copy CRC 46EB4795 Copy OK
Track 5 Filename E:\My Music\Machine_Head-Through_The_Ashes_Of_Empires-2004-FLAC\05 - In The Presence Of My Enemies.wav
Peak level 98.8 % Track quality 99.9 % Test CRC 051ECB5D Copy CRC 051ECB5D Copy OK
Track 6 Filename E:\My Music\Machine_Head-Through_The_Ashes_Of_Empires-2004-FLAC\06 - Days Turn Blue To Gray.wav
Pre-gap length 0:00:02.04
Peak level 100.0 % Track quality 100.0 % Test CRC D8A0328C Copy CRC D8A0328C Copy OK
Track 7 Filename E:\My Music\Machine_Head-Through_The_Ashes_Of_Empires-2004-FLAC\07 - Vim.wav
Pre-gap length 0:00:07.10
Peak level 98.8 % Track quality 100.0 % Test CRC E7DF1DF0 Copy CRC E7DF1DF0 Copy OK
Track 8 Filename E:\My Music\Machine_Head-Through_The_Ashes_Of_Empires-2004-FLAC\08 - Seasons Wither (Bonus Track).wav
Pre-gap length 0:00:01.02
Peak level 100.0 % Track quality 99.9 % Test CRC B1C9550C Copy CRC B1C9550C Copy OK
Track 9 Filename E:\My Music\Machine_Head-Through_The_Ashes_Of_Empires-2004-FLAC\09 - All Falls Down.wav
Pre-gap length 0:00:03.05
Peak level 98.8 % Track quality 99.9 % Test CRC EB4F9AB1 Copy CRC EB4F9AB1 Copy OK
Track 10 Filename E:\My Music\Machine_Head-Through_The_Ashes_Of_Empires-2004-FLAC\10 - Wipe The Tears.wav
Pre-gap length 0:00:01.02
Peak level 100.0 % Track quality 100.0 % Test CRC 30B72FDD Copy CRC 30B72FDD Copy OK
Track 11 Filename E:\My Music\Machine_Head-Through_The_Ashes_Of_Empires-2004-FLAC\11 - Descend The Shades Of Night.wav
Pre-gap length 0:00:04.06
Peak level 98.8 % Track quality 100.0 % Test CRC 2B9BF127 Copy CRC 2B9BF127 Copy OK
No errors occured
End of status report
01. Clenching The Fists Of Dissent (10:37)
02. Beautiful Mourning (4:46)
03. Aesthetics Of Hate (6:30)
04. Now I Lay Thee Down (5:35)
05. Slanderous (5:17)
06. Halo (9:03)
07. Wolves (9:01)
08. A Farewell To Arms (10:13)

Лог создания рипа

Exact Audio Copy V0.99 prebeta 5 from 4. May 2009
Отчёт EAC об извлечении, выполненном 29. ноября 2011, 19:41
Machine Head / The Blackening
Дисковод: TSSTcorpCDDVDW SH-S223C Adapter: 4 ID: 0
Режим чтения : ДостоверностьИспользование точного потока : ДаОтключение кэша аудио : ДаИспользование указателей C2 : Нет
Коррекция смещения при чтении : 697Способность читать области Lead-in и Lead-out : НетЗаполнение пропущенных сэмплов тишиной : ДаУдаление блоков с тишиной в начале и конце : НетПри вычислениях CRC использовались нулевые сэмплы : ДаИнтерфейс : Встроенный Win32-интерфейс для Win NT/2000
Выходной формат : Пользовательский кодировщикВыбранный битрейт : 1024 kBit/sКачество : ВысокийДобавление ID3-тэга : НетУтилита сжатия : C:\Program Files\Exact Audio Copy\Flac\flac.exeДополнительные параметры : -V -8 -T "artist=%a" -T "title=%t" -T "album=%g" -T "date=%y" -T "tracknumber=%n" -T "genre=%m" %s
TOC извлечённого CD
Трек | Старт | Длительность | Начальный сектор | Конечный сектор --------------------------------------------------------------------- 1 | 0:00.00 | 10:36.60 | 0 | 47759 2 | 10:36.60 | 4:46.32 | 47760 | 69241 3 | 15:23.17 | 6:30.22 | 69242 | 98513 4 | 21:53.39 | 5:34.48 | 98514 | 123611 5 | 27:28.12 | 5:16.68 | 123612 | 147379 6 | 32:45.05 | 9:03.29 | 147380 | 188133 7 | 41:48.34 | 9:01.06 | 188134 | 228714 8 | 50:49.40 | 10:12.52 | 228715 | 274666
Характеристики диапазона извлечения и сообщения об ошибках
Выбранный диапазон
Имя файла G:\Bufer\FLAC\Machine Head - The Blackening.wav
Пиковый уровень 99.8 % Качество диапазона 100.0 % CRC теста D255A80C CRC копии D255A80C Копирование... OK
Ошибок не произошло
AccurateRip: сводка
Трек 1 точное извлечение (доверие 25) [603C51A1]Трек 2 точное извлечение (доверие 25) [678F1A94]Трек 3 точное извлечение (доверие 25) [2852BE16]Трек 4 точное извлечение (доверие 25) [5749D9D9]Трек 5 точное извлечение (доверие 25) [8AE57E4D]Трек 6 точное извлечение (доверие 25) [F167177C]Трек 7 точное извлечение (доверие 25) [780AFCBE]Трек 8 точное извлечение (доверие 25) [0297FF03]
Все треки извлечены точно
Конец отчёта
01. Clenching The Fists Of Dissent (10:37)
02. Beautiful Mourning (4:46)
03. Aesthetics Of Hate (6:30)
04. Now I Lay Thee Down (5:35)
05. Slanderous (5:17)
06. Halo (9:03)
07. Wolves (9:01)
08. A Farewell To Arms (10:16)
09. Battery (5:03)

Лог создания рипа

Exact Audio Copy V1.0 beta 3 from 29. August 2011
EAC extraction logfile from 22. April 2012, 20:21
Machine Head / The Blackening [RRCY-29138, Japan]
Used drive : PIONEER DVD-RW DVR-112D Adapter: 1 ID: 0
Read mode : SecureUtilize accurate stream : YesDefeat audio cache : YesMake use of C2 pointers : No
Read offset correction : 48Overread into Lead-In and Lead-Out : NoFill up missing offset samples with silence : YesDelete leading and trailing silent blocks : NoNull samples used in CRC calculations : YesUsed interface : Installed external ASPI interface
Used output format : User Defined EncoderSelected bitrate : 1024 kBit/sQuality : HighAdd ID3 tag : NoCommand line compressor : C:\Program Files\Exact Audio Copy\FLAC\FLAC.EXEAdditional command line options : -V -8 -T "Date=%year%" -T "Genre=%genre%" %source%
TOC of the extracted CD
Track | Start | Length | Start sector | End sector --------------------------------------------------------- 1 | 0:00.00 | 10:36.60 | 0 | 47759 2 | 10:36.60 | 4:46.32 | 47760 | 69241 3 | 15:23.17 | 6:30.22 | 69242 | 98513 4 | 21:53.39 | 5:34.48 | 98514 | 123611 5 | 27:28.12 | 5:16.68 | 123612 | 147379 6 | 32:45.05 | 9:03.29 | 147380 | 188133 7 | 41:48.34 | 9:01.06 | 188134 | 228714 8 | 50:49.40 | 10:15.51 | 228715 | 274890 9 | 61:05.16 | 5:02.59 | 274891 | 297599
Range status and errors
Selected range
Filename C:\CDRip by Deminbek\Machine Head - The Blackening [RRCY-29138, Japan].wav
Peak level 99.8 % Extraction speed 8.0 X Range quality 99.9 % Test CRC 4ABE9E41 Copy CRC 4ABE9E41 Copy OK
No errors occurred
AccurateRip summary
Track 1 cannot be verified as accurate (confidence 54) [5C2E559B], AccurateRip returned [41952B19] (AR v2)Track 2 cannot be verified as accurate (confidence 53) [FD46F792], AccurateRip returned [434F3876] (AR v2)Track 3 cannot be verified as accurate (confidence 53) [8E61E373], AccurateRip returned [0AD3E217] (AR v2)Track 4 cannot be verified as accurate (confidence 55) [9E69695D], AccurateRip returned [4E4F2508] (AR v2)Track 5 cannot be verified as accurate (confidence 53) [63200693], AccurateRip returned [3DA5B36F] (AR v2)Track 6 cannot be verified as accurate (confidence 54) [1A85AAB5], AccurateRip returned [3F9B37A5] (AR v2)Track 7 cannot be verified as accurate (confidence 53) [343B38DB], AccurateRip returned [8CD2AF2B] (AR v2)Track 8 cannot be verified as accurate (confidence 54) [EDBB8EB4], AccurateRip returned [B7CAEAA3] (AR v2)Track 9 cannot be verified as accurate (confidence 52) [1F913880], AccurateRip returned [9389C2BA] (AR v2)
No tracks could be verified as accurateYou may have a different pressing from the one(s) in the database
End of status report
---- CUETools DB Plugin V2.1.3
[CTDB TOCID: 5cYWI28IpOsssYBF.tEKltTsGww-] found, Submit result: 5cYWI28IpOsssYBF.tEKltTsGww- has been confirmed[ebc5ed00] (9/9) Accurately ripped
==== Log checksum DD4D238D9E5AB42422638750A652E570B5A4EE0F53C896A85FBEB896E407A597 ====
01. Clenching The Fists Of Dissent (10:37)
02. Beautiful Mourning (4:46)
03. Aesthetics Of Hate (6:30)
04. Now I Lay Thee Down (5:35)
05. Slanderous (5:17)
06. Halo (9:03)
07. Wolves (9:01)
08. A Farewell To Arms (10:13)
01. Hallowed Be Thy Name (7:28)
02. Alan's On Fire (4:00)
03. Negative Creep (2:41)
04. Seasons Wither (6:16)
05. My Misery (4:39)
06. House Of Suffering (2:09)
07. The Possibility Of Life's Destruction (1:27)
08. Ten Ton Hammer (Extended Original Mix) (5:07)
09. Hole In The Sky (3:33)
10. Colors (4:42)
11. Hard Times (Live Version) (2:02)
12. Halo {I Want Your Soul} (Demo Version 2005) (6:34)
13. Aesthetics Of Hate {Thrash-Terpiece} (Demo Version 2005) (4:49)

Лог создания рипа

EAC extraction logfile from 9. November 2008, 23:18 for CDMachine Head / The Blackening: Special Edition CD 1
Used drive : LITE-ON DVDRW LH-20A1P Adapter: 0 ID: 1Read mode : Secure with NO C2, accurate stream, disable cacheRead offset correction : 6Overread into Lead-In and Lead-Out : No
Used output format : C:\Program Files\Exact Audio Copy\FLAC.EXE (User Defined Encoder) 32 kBit/s Additional command line options : -6 -V %s
Other options : Fill up missing offset samples with silence : Yes Delete leading and trailing silent blocks : No Installed external ASPI interface
Range status and errorsSelected range Filename D:\President\Machine Head\CD1\CDImage.flac.wav
Peak level 99.8 % Range quality 100.0 % CRC BF8A8BE1 Copy OK
No errors occured
End of status report_________________________________________________________________EAC extraction logfile from 9. November 2008, 23:45 for CDMachine Head / The Blackening: Special Edition CD 2 - B-Sides/'Rarities 1994-2008
Used drive : LITE-ON DVDRW LH-20A1P Adapter: 0 ID: 1Read mode : Secure with NO C2, accurate stream, disable cacheRead offset correction : 6Overread into Lead-In and Lead-Out : No
Used output format : C:\Program Files\Exact Audio Copy\FLAC.EXE (User Defined Encoder) 32 kBit/s Additional command line options : -6 -V %s
Other options : Fill up missing offset samples with silence : Yes Delete leading and trailing silent blocks : No Installed external ASPI interface
Range status and errorsSelected range Filename D:\President\Machine Head\CD2\CDImage.flac.wav
Peak level 100.0 % Range quality 100.0 % CRC 81AC705F Copy OK
No errors occured
End of status report
01. I Am Hell {Sonata In C#}: Sangre Sani | I Am Hell | Ashes To The Sky (8:26)
02. Be Still And Know (5:44)
03. Locust (7:36)
04. This Is The End (6:11)
05. Darkness Within (6:28)
06. Pearls Before The Swine (7:19)
07. Who We Are (7:11)
08. The Sentinel (5:08)
09. Witch Hunt (4:46)
10. Darkness Within (Acoustic Version) (5:05)

Лог создания рипа

Exact Audio Copy V1.0 beta 3 from 29. August 2011
EAC extraction logfile from 16. January 2012, 18:17
Machine Head / Unto The Locust
Used drive : PIONEER DVD-RW DVR-112D Adapter: 1 ID: 0
Read mode : SecureUtilize accurate stream : YesDefeat audio cache : YesMake use of C2 pointers : No
Read offset correction : 48Overread into Lead-In and Lead-Out : NoFill up missing offset samples with silence : YesDelete leading and trailing silent blocks : NoNull samples used in CRC calculations : YesUsed interface : Installed external ASPI interface
Used output format : User Defined EncoderSelected bitrate : 1024 kBit/sQuality : HighAdd ID3 tag : NoCommand line compressor : C:\Program Files\Exact Audio Copy\FLAC\FLAC.EXEAdditional command line options : -V -8 -T "Date=%year%" -T "Genre=%genre%" %source%
TOC of the extracted CD
Track | Start | Length | Start sector | End sector --------------------------------------------------------- 1 | 0:00.00 | 8:25.39 | 0 | 37913 2 | 8:25.39 | 5:43.59 | 37914 | 63697 3 | 14:09.23 | 7:36.24 | 63698 | 97921 4 | 21:45.47 | 6:11.36 | 97922 | 125782 5 | 27:57.08 | 6:27.63 | 125783 | 154870 6 | 34:24.71 | 7:19.30 | 154871 | 187825 7 | 41:44.26 | 7:11.11 | 187826 | 220161 8 | 48:55.37 | 5:08.32 | 220162 | 243293 9 | 54:03.69 | 4:46.05 | 243294 | 264748 10 | 58:49.74 | 5:05.16 | 264749 | 287639
Range status and errors
Selected range
Filename C:\CDRip by Deminbek\Machine Head - Unto The Locust [Deluxe][RR 1686-177025].wav
Peak level 100.0 % Extraction speed 6.5 X Range quality 99.9 % Test CRC E03D3285 Copy CRC E03D3285 Copy OK
No errors occurred
AccurateRip summary
Track 1 cannot be verified as accurate (confidence 6) [2D78F0AE], AccurateRip returned [06C1F99D] (AR v2)Track 2 cannot be verified as accurate (confidence 6) [F4740F68], AccurateRip returned [8848883A] (AR v2)Track 3 cannot be verified as accurate (confidence 6) [5FAC08C2], AccurateRip returned [92A4D6D6] (AR v2)Track 4 cannot be verified as accurate (confidence 6) [18B3FECA], AccurateRip returned [46522374] (AR v2)Track 5 cannot be verified as accurate (confidence 6) [27733977], AccurateRip returned [FBA86E5A] (AR v2)Track 6 cannot be verified as accurate (confidence 6) [7D51649A], AccurateRip returned [E1F178E6] (AR v2)Track 7 cannot be verified as accurate (confidence 6) [0FEA467E], AccurateRip returned [FF1B71DE] (AR v2)Track 8 cannot be verified as accurate (confidence 6) [0CD9EEC5], AccurateRip returned [4EF5E693] (AR v2)Track 9 cannot be verified as accurate (confidence 6) [CAFB3C7B], AccurateRip returned [D7B5F318] (AR v2)Track 10 cannot be verified as accurate (confidence 6) [27CB8477], AccurateRip returned [5A98EAA1] (AR v2)
No tracks could be verified as accurateYou may have a different pressing from the one(s) in the database
End of status report
==== Log checksum 627CAAD5792180627CD183F3BB23E25849821DD9FC32D00B4BC2196F079A9550 ====
Singles
01. Old (4:08)
02. Davidian (Live) (7:25)
03. Hard Times (Live) [col 2000

Лог создания рипа

Exact Audio Copy V0.99 prebeta 4 from 23. January 2008
EAC extraction logfile from 4. November 2008, 23:46
Machine Head / Old
Used drive : PIONEER DVD-RW DVR-111D Adapter: 0 ID: 0
Read mode : SecureUtilize accurate stream : YesDefeat audio cache : YesMake use of C2 pointers : No
Read offset correction : 48Overread into Lead-In and Lead-Out : NoFill up missing offset samples with silence : YesDelete leading and trailing silent blocks : NoNull samples used in CRC calculations : YesUsed interface : Native Win32 interface for Win NT & 2000Gap handling : Appended to previous track
Used output format : User Defined EncoderSelected bitrate : 768 kBit/sQuality : HighAdd ID3 tag : NoCommand line compressor : D:\Program Files\Exact Audio Copy\FLAC\FLAC.EXEAdditional command line options : -V -8 -T "artist=%a" -T "title=%t" -T "album=%g" -T "date=%y" -T "tracknumber=%n" -T "genre=%m" %s
TOC of the extracted CD
Track | Start | Length | Start sector | End sector --------------------------------------------------------- 1 | 0:00.32 | 4:07.68 | 32 | 18624 2 | 4:08.25 | 7:25.05 | 18625 | 52004 3 | 11:33.30 | 2:28.60 | 52005 | 63164 4 | 14:02.15 | 6:16.42 | 63165 | 91406
Track 1
Filename C:\Ripped CDs\Machine Head\Old\Machine Head - (01) Old.wav
Pre-gap length 0:00:02.42
Peak level 100.0 % Track quality 100.0 % Test CRC EB577B40 Copy CRC EB577B40 Track not present in AccurateRip database Copy OK
Track 2
Filename C:\Ripped CDs\Machine Head\Old\Machine Head - (02) Davidian (Live).wav
Pre-gap length 0:00:01.73
Peak level 100.0 % Track quality 100.0 % Test CRC 2F6D4DB7 Copy CRC 2F6D4DB7 Track not present in AccurateRip database Copy OK
Track 3
Filename C:\Ripped CDs\Machine Head\Old\Machine Head - (03) Hard Times (Live).wav
Pre-gap length 0:00:01.40
Peak level 100.0 % Track quality 100.0 % Test CRC C38612EF Copy CRC C38612EF Track not present in AccurateRip database Copy OK
Track 4
Filename C:\Ripped CDs\Machine Head\Old\Machine Head - (04) Death Church (Demo Version).wav
Pre-gap length 0:00:01.80
Peak level 100.0 % Track quality 99.9 % Test CRC 7BF29C7C Copy CRC 7BF29C7C Track not present in AccurateRip database Copy OK
None of the tracks are present in the AccurateRip database
No errors occurred
End of status report
01. Old (4:08)
02. Death Church (Convent Mix) (6:29)
03. Old (Eve Of Apocalypse Mix) (6:01)
04. The Rage To Overcome (Demo) (5:05)

Лог создания рипа

EAC extraction logfile from 6. October 2008, 9:18 for CDMachine Head / Old (UK Maxi-Single 1/2)
Used drive : PIONEER DVD-RW DVR-115D Adapter: 2 ID: 0Read mode : Secure with NO C2, accurate stream, disable cacheRead offset correction : 48Overread into Lead-In and Lead-Out : No
Used output format : C:\Program Files\Exact Audio Copy\flac.exe (User Defined Encoder) 320 kBit/s Additional command line options : -V -8 -T "artist=%a" -T "title=%t" -T "album=%g" -T "date=%y" -T "tracknumber=%n" -T "genre=%m" %s
Other options : Fill up missing offset samples with silence : Yes Delete leading and trailing silent blocks : No Native Win32 interface for Win NT & 2000
Track 1 Filename H:\music\flac\Machine Head - 1995 - Old (UK Maxi-Single 1,2)\01 - Old.wav
Pre-gap length 0:00:02.32
Peak level 100.0 % Track quality 100.0 % Test CRC 37124240 Copy CRC 37124240 Copy OK
Track 2 Filename H:\music\flac\Machine Head - 1995 - Old (UK Maxi-Single 1,2)\02 - Death Church (Convent Mix).wav
Pre-gap length 0:00:01.73
Peak level 100.0 % Track quality 100.0 % Test CRC B282AD73 Copy CRC B282AD73 Copy OK
Track 3 Filename H:\music\flac\Machine Head - 1995 - Old (UK Maxi-Single 1,2)\03 - Old (Eve Of Apocalypse Mix).wav
Pre-gap length 0:00:02.10
Peak level 100.0 % Track quality 100.0 % Test CRC CA11EB11 Copy CRC CA11EB11 Copy OK
Track 4 Filename H:\music\flac\Machine Head - 1995 - Old (UK Maxi-Single 1,2)\04 - The Rage To Overcome (Demo).wav
Peak level 100.0 % Track quality 99.9 % Test CRC 738F306B Copy CRC 738F306B Copy OK
No errors occured
End of status report
01. Take My Scars (4:21)
02. Negative Creep (2:41)
03. Take My Scars (Live) (4:24)
04. Blood For Blood (Live) (3:56)

Лог создания рипа

EAC extraction logfile from 13. December 2006, 14:03 for CDMachine Head / Take My Scars (English Import)
Used drive : Philips CD-ROM PCCD048 Adapter: 0 ID: 1Read mode : Secure with NO C2, accurate stream, disable cacheRead offset correction : 12Overread into Lead-In and Lead-Out : No
Used output format : C:\Archivos de programa\EAC\FLAC.exe (User Defined Encoder) 32 kBit/s Additional command line options : -6 -V -T "artist=%a" -T "title=%t" -T "album=%g" -T "date=%y" -T "tracknumber=%n" -T "genre=%m" -T "comment=EAC 0.9beta4 / FLAC 1.1.0 q6" %s
Other options : Fill up missing offset samples with silence : Yes Delete leading and trailing silent blocks : No Installed external ASPI interface
Range status and errorsSelected range Filename D:\MACHINE HEAD [1997] [CDS] Take my scars\Take my scars.flac.wav
Peak level 100.0 % Range quality 100.0 % CRC 3D211101 Copy OK
No errors occured
End of status report
01. Take My Scars (4:21)
02. Negative Creep (2:41)
03. Ten Ton Hammer (Demo) (5:01)
04. Struck A Nerve (Demo) (3:35)

Лог создания рипа

Exact Audio Copy V0.99 prebeta 4 from 23. January 2008
EAC extraction logfile from 5. November 2008, 0:21
Machine Head / Take My Scars
Used drive : PIONEER DVD-RW DVR-111D Adapter: 0 ID: 0
Read mode : SecureUtilize accurate stream : YesDefeat audio cache : YesMake use of C2 pointers : No
Read offset correction : 48Overread into Lead-In and Lead-Out : NoFill up missing offset samples with silence : YesDelete leading and trailing silent blocks : NoNull samples used in CRC calculations : YesUsed interface : Native Win32 interface for Win NT & 2000Gap handling : Appended to previous track
Used output format : User Defined EncoderSelected bitrate : 768 kBit/sQuality : HighAdd ID3 tag : NoCommand line compressor : D:\Program Files\Exact Audio Copy\FLAC\FLAC.EXEAdditional command line options : -V -8 -T "artist=%a" -T "title=%t" -T "album=%g" -T "date=%y" -T "tracknumber=%n" -T "genre=%m" %s
TOC of the extracted CD
Track | Start | Length | Start sector | End sector --------------------------------------------------------- 1 | 0:00.00 | 4:21.20 | 0 | 19594 2 | 4:21.20 | 2:40.55 | 19595 | 31649 3 | 7:02.00 | 5:00.72 | 31650 | 54221 4 | 12:02.72 | 3:35.28 | 54222 | 70374
Track 1
Filename C:\Ripped CDs\Machine Head\Take My Scars\Machine Head - (01) Take My Scars.wav
Pre-gap length 0:00:02.00
Peak level 98.8 % Track quality 100.0 % Test CRC F255DE3F Copy CRC F255DE3F Accurately ripped (confidence 1) [CB5E3F57] Copy OK
Track 2
Filename C:\Ripped CDs\Machine Head\Take My Scars\Machine Head - (02) Negative Creep.wav
Peak level 100.0 % Track quality 99.9 % Test CRC E81F764B Copy CRC E81F764B Accurately ripped (confidence 1) [BDCD773E] Copy OK
Track 3
Filename C:\Ripped CDs\Machine Head\Take My Scars\Machine Head - (03) Ten Ton Hammer (Demo).wav
Peak level 100.0 % Track quality 100.0 % Test CRC 48225F6B Copy CRC 48225F6B Accurately ripped (confidence 1) [F62AE7FA] Copy OK
Track 4
Filename C:\Ripped CDs\Machine Head\Take My Scars\Machin

[Цитировать]



Показать сообщения:    

Текущее время: 05-Дек 17:38

Часовой пояс: UTC + 3


Вы не можете начинать темы
Вы не можете отвечать на сообщения
Вы не можете редактировать свои сообщения
Вы не можете удалять свои сообщения
Вы не можете голосовать в опросах
Вы не можете прикреплять файлы к сообщениям
Вы не можете скачивать файлы

!ВНИМАНИЕ!
Сайт не предоставляет электронные версии произведений, а занимается лишь коллекционированием и каталогизацией ссылок, присылаемых и публикуемых на форуме нашими читателями. Если вы являетесь правообладателем какого-либо представленного материала и не желаете, чтобы ссылка на него находилась в нашем каталоге, свяжитесь с нами, и мы незамедлительно удалим ее. Файлы для обмена на трекере предоставлены пользователями сайта, и администрация не несет ответственности за их содержание. Просьба не заливать файлы, защищенные авторскими правами, а также файлы нелегального содержания!