[ Сегодня идет свободное скачивание без начисления Download ]


Статистика раздачи
Скачал: [ 4 ]
 
   
 
Top  
 
 
Иван Васильевич меняет профессию (1973) -Название: Иван Васильевич меняет профессию
Год выпуска: 1973
Страна: СССР
Жанр: фантастика, комедия, приключения
Продолжительность: 01:31:39
Перевод: Оригинальный-Режиссер: Леонид Гайдай-В ролях: Александр Демьяненко (Александр Тимофеев, инженер-изобретатель), Юрий Яковлев (царь Иван Васильевич Грозный / управдом Иван Васильевич Бунша), Леонид Куравлёв (Жорж Милославский), Наталья Крачковская (Ульяна Андреевна Бунша), Савелий Крамаров (дьяк Феофан), Наталья Селезнёва (Зина Тимофеева), Владимир Этуш (Антон Семенович Шпак), Михаил Пуговкин (Карп Савельевич Якин), Сергей Филиппов (шведский посол), Наталья Кустинская (актриса, подруга режиссера Якина), Эдуард Бредун (спекулянт радиотоварами), Валентин Грачев (стрелец)-Описание:
Инженер-изобретатель Тимофеев сконструировал машину времени, которая соединила его квартиру с далеким шестнадцатым веком - точнее, с палатами государя Ивана Грозного. Туда-то и попадают тезка царя пенсионер-общественник Иван Васильевич Бунша и квартирный вор Жорж Милославский.
На их место в двадцатом веке «переселяется» великий государь. Поломка машины приводит ко множеству неожиданных и забавных событий...-Рейтинг:
-Качество: BDRip-AVC 60fps
Формат: MKV
Видео: AVC, 784x568 (1.380), 3600 kbps, 59,940 fps, 0,135 bpp
Аудио: русский / AC3 / 5.1 / 48 kHz / 640 kbps / 16 bit
Навигация по главам: есть- -

ОтчетМедиаИнфо

General
Unique ID : 227892221943025815062668696117404838262 (0xAB727207EAB6A0E29BB730D647312976)
Format : Matroska
Format version : Version 4 / Version 2
File size : 2.72 GiB
Duration : 1h 31mn
Overall bit rate : 4 246 Kbps
Movie name : Tiberiumsun69
Encoded date : UTC 2015-12-31 07:11:29
Writing application : mkvmerge v8.3.0 ('Over the Horizon') 64bit
Writing library : libebml v1.3.1 + libmatroska v1.4.2
Attachment : Yes
Video
ID : 1
Format : AVC
Format/Info : Advanced Video Codec
Format profile : [email protected]
Format settings, CABAC : Yes
Format settings, ReFrames : 4 frames
Codec ID : V_MPEG4/ISO/AVC
Duration : 1h 31mn
Bit rate : 3 600 Kbps
Width : 784 pixels
Height : 568 pixels
Display aspect ratio : 1.380
Frame rate : 59.940 fps
Color space : YUV
Chroma subsampling : 4:2:0
Bit depth : 8 bits
Scan type : Progressive
Bits/(Pixel*Frame) : 0.135
Stream size : 2.25 GiB (83%)
Title : Tiberiumsun69
Writing library : x264 core 146 r2538 121396c
Encoding settings : cabac=1 / ref=3 / deblock=1:0:0 / analyse=0x3:0x113 / me=umh / subme=9 / psy=1 / psy_rd=1.00:0.10 / mixed_ref=1 / me_range=32 / chroma_me=1 / trellis=2 / 8x8dct=1 / cqm=0 / deadzone=21,11 / fast_pskip=0 / chroma_qp_offset=-3 / threads=12 / lookahead_threads=3 / sliced_threads=0 / nr=0 / decimate=1 / interlaced=0 / bluray_compat=0 / constrained_intra=0 / bframes=16 / b_pyramid=2 / b_adapt=2 / b_bias=0 / direct=3 / weightb=1 / open_gop=0 / weightp=2 / keyint=250 / keyint_min=25 / scenecut=40 / intra_refresh=0 / rc_lookahead=40 / rc=2pass / mbtree=0 / bitrate=3600 / ratetol=1.0 / qcomp=0.60 / qpmin=0 / qpmax=69 / qpstep=4 / cplxblur=20.0 / qblur=0.5 / vbv_maxrate=14000 / vbv_bufsize=14000 / nal_hrd=none / filler=0 / ip_ratio=1.40 / pb_ratio=1.30 / aq=1:1.00
Language : English
Default : Yes
Forced : No
Audio
ID : 2
Format : AC-3
Format/Info : Audio Coding 3
Mode extension : CM (complete main)
Codec ID : A_AC3
Duration : 1h 31mn
Bit rate mode : Constant
Bit rate : 640 Kbps
Channel(s) : 6 channels
Channel positions : Front: L C R, Side: L R, LFE
Sampling rate : 48.0 KHz
Bit depth : 16 bits
Compression mode : Lossy
Stream size : 420 MiB (15%)
Title : Оригинал
Language : Russian
Default : Yes
Forced : No
Menu
00:00:00.000 : en:Chapter 1
00:08:01.689 : en:Chapter 2
00:12:06.684 : en:Chapter 3
00:17:05.566 : en:Chapter 4
00:22:05.699 : en:Chapter 5
00:27:41.660 : en:Chapter 6
00:31:35.810 : en:Chapter 7
00:37:12.313 : en:Chapter 8
00:46:36.126 : en:Chapter 9
00:49:43.063 : en:Chapter 10
00:59:18.638 : en:Chapter 11
01:06:17.098 : en:Chapter 12
01:09:48.225 : en:Chapter 13
01:18:32.624 : en:Chapter 14
01:23:40.015 : en:Chapter 15
01:28:22.672 : en:Chapter 16

Скриншоты

Просьба к переливающим на другие сайты, в оформлении указывайте пожалуйста авторство группы

[Цитировать]



Показать сообщения:    

Текущее время: 04-Дек 04:56

Часовой пояс: UTC + 3


Вы не можете начинать темы
Вы не можете отвечать на сообщения
Вы не можете редактировать свои сообщения
Вы не можете удалять свои сообщения
Вы не можете голосовать в опросах
Вы не можете прикреплять файлы к сообщениям
Вы не можете скачивать файлы

!ВНИМАНИЕ!
Сайт не предоставляет электронные версии произведений, а занимается лишь коллекционированием и каталогизацией ссылок, присылаемых и публикуемых на форуме нашими читателями. Если вы являетесь правообладателем какого-либо представленного материала и не желаете, чтобы ссылка на него находилась в нашем каталоге, свяжитесь с нами, и мы незамедлительно удалим ее. Файлы для обмена на трекере предоставлены пользователями сайта, и администрация не несет ответственности за их содержание. Просьба не заливать файлы, защищенные авторскими правами, а также файлы нелегального содержания!