[ Сегодня идет свободное скачивание без начисления Download ]


Статистика раздачи
Нет
 
   
 
Top  
 
 
Пансионат "Сказка", или Чудеса включены Год выпуска: 2015
Производитель : Россия, НТВ-Кино
Жанр: Мелодрама
Продолжительность: 45 мин.
Cубтитры: нет
Режиссер: Александр Жигалкин
В ролях: Светлана Антонова, Павел Трубинер, Александр Лыков, Игорь Золотовицкий, Дарья Фекленко, Ася Домская, Андрей Бурковский, Джемал Тетруашвили, Татьяна Пискарёва, Пётр Янданов, Юрий Щербаков (II), Юрий Ваксман, Владимир Иванов, Олег Кассин, Нонна Гришаева
Описание: В преддверии Нового года бракоразводный процесс лишает молодого миллионера Евгения Портнова всех активов, оставив ему лишь загородный пансионат «Сказка». Евгений планирует продать «Сказку». Тем временем в пансионат съезжаются гости: певец Алексей Кортнев, женская сборная по синхронному плаванию, девушка Ира, бредящая своей свадьбой, которую ей предсказала гадалка. Сюда же под видом Деда Мороза приезжает и Портнов. И происходит «обыкновенное новогоднее чудо»: после бесконечных перипетий и разборок воцаряются мир и любовь!
Релиз группа
Сэмпл
Качество: HDTVRip
Формат: AVI
Видео кодек: XviD
Аудио кодек: AC3
Видео: 720x400 (1.80:1), 25 fps, XviD build 73 ~1517 kbps avg, 0.22 bit/pixel
Аудио: 48 kHz, AC3 Dolby Digital, 2/0 (L,R) ch, ~192.00 kbps avg

MI

General
Complete name : Y:\раздачи\Пансионат Сказкa, или Чудеса включены.2015.HDTVRip.RG.Russkie.serialy.&.Files-x\01.Пансионат Сказкa, или Чудеса включены.2015.HDTVRip.RG.Russkie.serialy.&.Files-x.avi
Format : AVI
Format/Info : Audio Video Interleave
File size : 549 MiB
Duration : 44mn 41s
Overall bit rate : 1 719 Kbps
Writing application : VirtualDubMod 1.5.10.3 | www.virtualdub-fr.org || (build 2550/release)
Writing library : VirtualDubMod build 2550/release
Video
ID : 0
Format : MPEG-4 Visual
Format profile : Advanced Simple@L5
Format settings, BVOP : 1
Format settings, QPel : No
Format settings, GMC : No warppoints
Format settings, Matrix : Custom
Codec ID : XVID
Codec ID/Hint : XviD
Duration : 44mn 41s
Bit rate : 1 517 Kbps
Width : 720 pixels
Height : 400 pixels
Display aspect ratio : 16:9
Frame rate : 25.000 fps
Color space : YUV
Chroma subsampling : 4:2:0
Bit depth : 8 bits
Scan type : Progressive
Compression mode : Lossy
Bits/(Pixel*Frame) : 0.211
Stream size : 485 MiB (88%)
Writing library : XviD 73
Audio
ID : 1
Format : AC-3
Format/Info : Audio Coding 3
Mode extension : CM (complete main)
Format settings, Endianness : Big
Codec ID : 2000
Duration : 44mn 41s
Bit rate mode : Constant
Bit rate : 192 Kbps
Channel(s) : 2 channels
Channel positions : Front: L R
Sampling rate : 48.0 KHz
Compression mode : Lossy
Stream size : 61.4 MiB (11%)
Alignment : Split accross interleaves
Interleave, duration : 40 ms (1.00 video frame)
Interleave, preload duration : 500 ms

Внимание! Раздача ведётся путём добавления новых серий!

Внимание! Раздача ведётся путём добавления новых серий
Внимание! Раздача ведётся путём добавления новых серий; при каждом добавлении создётся новый торрент.
Чтобы начать докачку новой серии, пользователям необходимо сделать следующее:
1) остановить скачивание
2) удалить старый торрент у себя из клиента (старые серии удалять не надо)
3) скачать новый торрент и запустить его у себя в клиенте вместо старого, при этом указать клиенту путь в старую папку куда и должно происходить скачивание новых серий.
Ваш клиент при этом должен произвести хеширование (проверку) старой папки (если не производит сам - помогите ему сделать это), и будет докачивать только те серии которых у вас ещё нет. Старые серии при этом не удаляются, а продолжают раздаваться!
Eсли вы уже удалили старые серии, то предотвратить повторную закачку старых серий можно, отжав галочку в соответствовавших местах при запуске нового торрента.

Скриншоты

[Цитировать]

Топик был перенесен из форума Отечественные сериалы в форум Архив
cyrmos



Показать сообщения:    

Текущее время: 23-Май 09:14

Часовой пояс: UTC + 6


Вы не можете начинать темы
Вы не можете отвечать на сообщения
Вы не можете редактировать свои сообщения
Вы не можете удалять свои сообщения
Вы не можете голосовать в опросах
Вы не можете прикреплять файлы к сообщениям
Вы не можете скачивать файлы

!ВНИМАНИЕ!
Сайт не предоставляет электронные версии произведений, а занимается лишь коллекционированием и каталогизацией ссылок, присылаемых и публикуемых на форуме нашими читателями. Если вы являетесь правообладателем какого-либо представленного материала и не желаете, чтобы ссылка на него находилась в нашем каталоге, свяжитесь с нами, и мы незамедлительно удалим ее. Файлы для обмена на трекере предоставлены пользователями сайта, и администрация не несет ответственности за их содержание. Просьба не заливать файлы, защищенные авторскими правами, а также файлы нелегального содержания!