[ Сегодня идет свободное скачивание без начисления Download ]


Статистика раздачи
Нет
 
   
 
Top  
 
 
Trivium - Дискография (2003 - 2011)- -Страна: United States Of America
Жанр: Metalcore
Аудио кодек: FLAC
Тип рипа: image+.cue (2003 - 2008), tracks+.cue (2011)
Текущий состав группы:
Мэтью Киичи Хифи (Matthew Kiichi Heafy) - вокал, гитара
Кори Бьёлье (Corey Beaulieu) - гитара, бэк-вокал
Паоло Греголетто (Paolo Gregoletto) - бас-гитара, бэк-вокал
Ник Августо (Nick Augusto) - ударные
-Trivium — американская трэш-метал\металкор группа из Орландо, Флорида, образованная в 1999 году. Слово Trivium для своего названия организаторы первого состава — Хифи, Смит и Льютер — взяли из латинского языка — так назывался учебный курс из трёх дисциплин (грамматики, логики и риторики) в средневековых школах....продолжение

2003 - Trivium (EP)

RYM User Rating: 2.99
Продолжительность: 35:23
Трэклист:
01 - To Burn The Eye
02 - Requiem
03 - Fugue
04 - My Hatred
05 - The Storm
06 - Sworn
07 - Demon

Доп. информация:
Trivium (EP) is a demo EP and first release from Floridian thrash metal/metalcore band Trivium. It was released sometime in 2003 before the release of the final cut, Ember to Inferno. Consequently, the first four songs on this EP are demo versions of songs featured on Ember to Inferno. "Demon" is featured as a bonus track on the re-issue of said album.
Trivium went to work with Jason Suecof from Audio Hammer Studios to record the CD.

Лог EAC

Exact Audio Copy V0.99 prebeta 5 from 4. May 2009
EAC extraction logfile from 23. June 2009, 23:22
Trivium / Trivium
Used drive : ASUS DRW-1608P3S Adapter: 0 ID: 0
Read mode : Secure
Utilize accurate stream : Yes
Defeat audio cache : Yes
Make use of C2 pointers : No
Read offset correction : 48
Overread into Lead-In and Lead-Out : Yes
Fill up missing offset samples with silence : Yes
Delete leading and trailing silent blocks : No
Null samples used in CRC calculations : Yes
Used interface : Native Win32 interface for Win NT & 2000
Used output format : Internal WAV Routines
Sample format : 44.100 Hz; 16 Bit; Stereo
TOC of the extracted CD
Track | Start | Length | Start sector | End sector
---------------------------------------------------------
1 | 0:00.00 | 6:59.40 | 0 | 31464
2 | 6:59.40 | 5:01.47 | 31465 | 54086
3 | 12:01.12 | 4:29.53 | 54087 | 74314
4 | 16:30.65 | 4:51.50 | 74315 | 96189
5 | 21:22.40 | 6:03.40 | 96190 | 123454
6 | 27:26.05 | 4:27.52 | 123455 | 143531
7 | 31:53.57 | 3:29.48 | 143532 | 159254
Range status and errors
Selected range
Filename K:\Trivium - Trivium.wav
Peak level 99.9 %
Range quality 100.0 %
Test CRC 4AB0C962
Copy CRC 4AB0C962
Copy OK
No errors occurred
AccurateRip summary
Track 1 not present in database
Track 2 not present in database
Track 3 not present in database
Track 4 not present in database
Track 5 not present in database
Track 6 not present in database
Track 7 not present in database
None of the tracks are present in the AccurateRip database
End of status report

Tau Analyzer

2005 - Ember To Inferno (Re-Release)

RYM User Rating: 2.80
Продолжительность: 1:04:47
Трэклист:
01 - Inception The Bleeding Skies
02 - Pillars Of Serpents
03 - If I Could Collapse The Masses
04 - Fugue (A Revelation)
05 - Requiem
06 - Ember To Inferno
07 - Ashes
08 - To Burn The Eye
09 - Falling To Grey
10 - My Hatred
11 - When All Light Dies
12 - A View Of Burning Empires
13 - Blinding Tears Will Break The Skies (Demo)
14 - The Deceived (Demo)
15 - Demon

Доп. информация:
Ember to Inferno is the debut album from American heavy metal band Trivium.
The album seems to follow a theme of tyranny, oppression, and freedom, with songs covering guerilla warfare and overthrowing evil. Band leader and frontman Matt Heafy was 17 years old when the album was written and recorded. Corey Beaulieu toured in support of the album - he did not play on the album according to the re-release booklet. "The Deceived" was re-recorded and released on their next record Ascendancy and "Blinding Tears Will Break the Skies" was recorded as a bonus track on the Ember To Inferno re-release. It is interesting to note that "Inception, The Bleeding Skies" is a section of "A View of Burning Empires" played in reverse, and is also exactly the same when reversed.

Лог EAC

Exact Audio Copy V0.99 prebeta 4 from 23. January 2008
EAC extraction logfile from 30. March 2009, 18:45
Trivium / Ember To Inferno (Re-Release)
Used drive : ASUS DRW-1608P3S Adapter: 0 ID: 0
Read mode : Secure
Utilize accurate stream : Yes
Defeat audio cache : Yes
Make use of C2 pointers : No
Read offset correction : 48
Overread into Lead-In and Lead-Out : Yes
Fill up missing offset samples with silence : Yes
Delete leading and trailing silent blocks : No
Null samples used in CRC calculations : Yes
Used interface : Native Win32 interface for Win NT & 2000
Used output format : Internal WAV Routines
Sample format : 44.100 Hz; 16 Bit; Stereo
TOC of the extracted CD
Track | Start | Length | Start sector | End sector
---------------------------------------------------------
1 | 0:00.00 | 0:35.15 | 0 | 2639
2 | 0:35.15 | 4:35.14 | 2640 | 23278
3 | 5:10.29 | 4:41.73 | 23279 | 44426
4 | 9:52.27 | 4:21.50 | 44427 | 64051
5 | 14:14.02 | 4:53.50 | 64052 | 86076
6 | 19:07.52 | 4:11.12 | 86077 | 104913
7 | 23:18.64 | 0:53.53 | 104914 | 108941
8 | 24:12.42 | 7:01.10 | 108942 | 140526
9 | 31:13.52 | 5:36.72 | 140527 | 165798
10 | 36:50.49 | 4:34.38 | 165799 | 186386
11 | 41:25.12 | 6:23.37 | 186387 | 215148
12 | 47:48.49 | 1:49.68 | 215149 | 223391
13 | 49:38.42 | 5:40.37 | 223392 | 248928
14 | 55:19.04 | 6:00.57 | 248929 | 275985
15 | 61:19.61 | 3:27.18 | 275986 | 291528
Range status and errors
Selected range
Filename K:\Trivium - Ember To Inferno (Re-Release).wav
Peak level 100.0 %
Range quality 100.0 %
Copy CRC 4AAD04E5
Copy OK
No errors occurred
AccurateRip summary
Track 1 accurately ripped (confidence 15) [7213D6B3]
Track 2 accurately ripped (confidence 14) [ACB03F17]
Track 3 accurately ripped (confidence 14) [E60FA17A]
Track 4 accurately ripped (confidence 15) [96117A22]
Track 5 accurately ripped (confidence 15) [0750E8AE]
Track 6 accurately ripped (confidence 16) [267EED16]
Track 7 accurately ripped (confidence 16) [37A692F5]
Track 8 accurately ripped (confidence 14) [ED7F443B]
Track 9 accurately ripped (confidence 14) [7053C8A6]
Track 10 accurately ripped (confidence 15) [758A7429]
Track 11 accurately ripped (confidence 16) [78F32240]
Track 12 accurately ripped (confidence 16) [B6E671C3]
Track 13 accurately ripped (confidence 14) [05C162D3]
Track 14 accurately ripped (confidence 15) [5D96F147]
Track 15 accurately ripped (confidence 15) [588BE8D0]
All tracks accurately ripped
End of status report

2006 - Ascendancy (Re-Release)

Bonus DVD
RYM User Rating: 3.06
Продолжительность: 1:15:32
Трэклист:
01 - The End Of Everything
02 - Rain
03 - Pull Harder On The Strings Of Your Martyr
04 - Drowned And Torn Asunder
05 - Ascendancy
06 - A Gunshot To The Head Of Trepidation
07 - Like Light To The Flies
08 - Dying In Your Arms
09 - The Deceived
10 - Suffocating Sight
11 - Departure
12 - Declaration
13 - Blinding Tears Will Break The Skies
14 - Washing Away Me In The Tides
15 - Master Of Puppets
16 - Dying in Your Arms (Video Mix)

Доп. информация:
Ascendancy is the second studio album by metalcore band Trivium.
The album was produced by Jason Suecof and vocalist/guitarist Matt Heafy. The album spawned four singles in "Like Light to the Flies", "Pull Harder on the Strings of Your Martyr", "A Gunshot to the Head of Trepidation" and "Dying in Your Arms". Music videos for each of the songs were shot; a promotional video was filmed for the song "Rain". A demo of the song "The Deceived" was included on the re-release of Trivium's debut album Ember to Inferno nearly a year before Ascendancy was released. Likewise, a demo version of "Like Light to the Flies" was included on the MTV compilation album Headbangers Ball Volume 2. Also, a demo of the song "Blinding Tears Will Break the Skies" was included on the Ember to Inferno re-release and later re-recorded and included as a bonus track on the re-release of Ascendancy. International versions of the album featured "Washing Away Me in the Tides" as a bonus track; the song was later included on the Underworld: Evolution soundtrack.
Trivium's Ascendancy peaked at #151 on the US Billboard 200 and at #4 on the US Top Heatseekers charts. In the UK it peaked at #78, and shipped over 100,000 copies - attaining Gold status, without entering the UK top 75.This album was also rated 52 on Guitar World's list of 100 greatest guitar albums of all time.

Лог EAC

Exact Audio Copy V0.99 prebeta 4 from 23. January 2008
EAC extraction logfile from 30. March 2009, 19:46
Trivium / Ascendancy (Re-Release)
Used drive : ASUS DRW-1608P3S Adapter: 0 ID: 0
Read mode : Secure
Utilize accurate stream : Yes
Defeat audio cache : Yes
Make use of C2 pointers : No
Read offset correction : 48
Overread into Lead-In and Lead-Out : Yes
Fill up missing offset samples with silence : Yes
Delete leading and trailing silent blocks : No
Null samples used in CRC calculations : Yes
Used interface : Native Win32 interface for Win NT & 2000
Used output format : Internal WAV Routines
Sample format : 44.100 Hz; 16 Bit; Stereo
TOC of the extracted CD
Track | Start | Length | Start sector | End sector
---------------------------------------------------------
1 | 0:00.00 | 1:21.22 | 0 | 6096
2 | 1:21.22 | 4:11.61 | 6097 | 24982
3 | 5:33.08 | 4:51.19 | 24983 | 46826
4 | 10:24.27 | 4:17.18 | 46827 | 66119
5 | 14:41.45 | 4:25.36 | 66120 | 86030
6 | 19:07.06 | 5:55.41 | 86031 | 112696
7 | 25:02.47 | 5:40.51 | 112697 | 138247
8 | 30:43.23 | 2:53.00 | 138248 | 151222
9 | 33:36.23 | 5:11.64 | 151223 | 174611
10 | 38:48.12 | 3:47.39 | 174612 | 191675
11 | 42:35.51 | 5:41.07 | 191676 | 217257
12 | 48:16.58 | 7:00.05 | 217258 | 248762
13 | 55:16.63 | 5:10.52 | 248763 | 272064
14 | 60:27.40 | 3:48.42 | 272065 | 289206
15 | 64:16.07 | 8:11.00 | 289207 | 326031
16 | 72:27.07 | 3:05.08 | 326032 | 339914
Range status and errors
Selected range
Filename K:\Trivium - Ascendancy (Re-Release).wav
Peak level 100.0 %
Range quality 100.0 %
Copy CRC F7E0413B
Copy OK
No errors occurred
AccurateRip summary
Track 1 accurately ripped (confidence 15) [A7A41C88]
Track 2 accurately ripped (confidence 16) [BA022E4F]
Track 3 accurately ripped (confidence 16) [69C5C175]
Track 4 accurately ripped (confidence 16) [9C293E83]
Track 5 accurately ripped (confidence 16) [05BB205D]
Track 6 accurately ripped (confidence 16) [7CBCBFE8]
Track 7 accurately ripped (confidence 15) [EC426C01]
Track 8 accurately ripped (confidence 16) [9EF07411]
Track 9 accurately ripped (confidence 16) [3C441ACB]
Track 10 accurately ripped (confidence 16) [AA1AAB3F]
Track 11 accurately ripped (confidence 16) [0B2B46BB]
Track 12 accurately ripped (confidence 15) [4B5D632A]
Track 13 accurately ripped (confidence 15) [D11B3E50]
Track 14 accurately ripped (confidence 15) [D7842C75]
Track 15 accurately ripped (confidence 15) [746BEC9D]
Track 16 accurately ripped (confidence 14) [2FF81764]
All tracks accurately ripped
End of status report

2006 - Anthem (We Are The Fire) (Single)

RYM User Rating: 1.87
Продолжительность: 13:28
Трэклист:
01 - Anthem (We Are The Fire)
02 - Vengeance
03 - Broken One

Лог EAC

Exact Audio Copy V0.99 prebeta 5 from 4. May 2009
EAC extraction logfile from 30. October 2010, 15:52
Trivium / Anthem [We Are The Fire]
Used drive : TSSTcorpCDDVDW TS-L633C Adapter: 2 ID: 0
Read mode : Secure
Utilize accurate stream : Yes
Defeat audio cache : Yes
Make use of C2 pointers : No
Read offset correction : 6
Overread into Lead-In and Lead-Out : No
Fill up missing offset samples with silence : Yes
Delete leading and trailing silent blocks : No
Null samples used in CRC calculations : Yes
Used interface : Native Win32 interface for Win NT & 2000
Used output format : Internal WAV Routines
Sample format : 44.100 Hz; 16 Bit; Stereo
TOC of the extracted CD
Track | Start | Length | Start sector | End sector
---------------------------------------------------------
1 | 0:00.00 | 4:03.52 | 0 | 18276
2 | 4:03.52 | 3:36.42 | 18277 | 34518
3 | 7:40.19 | 5:48.03 | 34519 | 60621
4 | 16:00.22 | 4:44.74 | 72022 | 93395
Range status and errors
Selected range
Filename Z:\TRIVIUM\2006 - Anthem [We Are The Fire].wav
Peak level 96.6 %
Range quality 100.0 %
Test CRC CB396E3F
Copy CRC CB396E3F
Copy OK
No errors occurred
AccurateRip summary
Track 1 not present in database
Track 2 accurately ripped (confidence 1) [C19683AE]
Track 3 accurately ripped (confidence 1) [BFD77F77]
2 track(s) accurately ripped
1 track(s) not present in the AccurateRip database
Some tracks could not be verified as accurate
End of status report

2006 - The Crusade

RYM User Rating: 2.69
Продолжительность: 57:32
Трэклист:
01 - Ignition
02 - Detonation
03 - Entrance Of The Conflagration
04 - Anthem (We Are The Fire)
05 - Unrepentant
06 - And Sadness Will Sear
07 - Becoming The Dragon
08 - To The Rats
09 - This World Can't Tear Us Apart
10 - Tread The Floods
11 - Contempt Breeds Contamination
12 - The Rising
13 - The Crusade

Доп. информация:
The Crusade is the third studio album by metal band Trivium.
According to frontman Matt Heafy, "There's 11 ridiculously technical songs. It's a solo insanity CD, but in a good way." Bassist Paolo Gregoletto referred to the album as "small" and that it doesn't "kick peoples asses right in the face." Before the album was released, three songs off the album were released on the band's MySpace – "Detonation", "Anthem (We are the Fire)", and "Entrance of the Conflagration". Music videos for "Entrance of the Conflagration", "Anthem (We are the Fire)","The Rising", "To the Rats", and "Becoming the Dragon" were produced and released on Roadrunner's Web site. In the United Kingdom the album was released on October 9, and was certified silver in for sales in excess of 60,000 copies. The album peaked at number 7 in the UK and at number 25 on the US Billboard 200. The track "Detonation" is available on the Xbox 360 release of the video game, Guitar Hero II as downloadable content.
The album represents a drastic change in style from their previous album, Ascendancy, adopting an almost Metallica-esque thrash metal sound, with Heafy using a vocal style similar to James Hetfield. Lyrical themes on the album include famous killings. "Entrance of the Conflagration" is about Andrea Yates's murder of her five children, "Unrepentant" is about Nazir Ahmad's's murder of his three daughters and stepdaughter, "Contempt Breeds Contamination" is about the death of Amadou Diallo, and "And Sadness Will Sear" is based upon the murder of Matthew Shepard.

Лог EAC

Exact Audio Copy V0.99 prebeta 4 from 23. January 2008
EAC extraction logfile from 30. March 2009, 18:05
Trivium / The Crusade
Used drive : ASUS DRW-1608P3S Adapter: 0 ID: 0
Read mode : Secure
Utilize accurate stream : Yes
Defeat audio cache : Yes
Make use of C2 pointers : No
Read offset correction : 48
Overread into Lead-In and Lead-Out : Yes
Fill up missing offset samples with silence : Yes
Delete leading and trailing silent blocks : No
Null samples used in CRC calculations : Yes
Used interface : Native Win32 interface for Win NT & 2000
Used output format : Internal WAV Routines
Sample format : 44.100 Hz; 16 Bit; Stereo
TOC of the extracted CD
Track | Start | Length | Start sector | End sector
---------------------------------------------------------
1 | 0:00.00 | 3:54.51 | 0 | 17600
2 | 3:54.51 | 4:28.63 | 17601 | 37763
3 | 8:23.39 | 4:35.18 | 37764 | 58406
4 | 12:58.57 | 4:03.30 | 58407 | 76661
5 | 17:02.12 | 4:51.63 | 76662 | 98549
6 | 21:54.00 | 3:34.41 | 98550 | 114640
7 | 25:28.41 | 4:43.61 | 114641 | 135926
8 | 30:12.27 | 3:42.43 | 135927 | 152619
9 | 33:54.70 | 3:30.19 | 152620 | 168388
10 | 37:25.14 | 3:33.64 | 168389 | 184427
11 | 40:59.03 | 4:28.47 | 184428 | 204574
12 | 45:27.50 | 3:45.14 | 204575 | 221463
13 | 49:12.64 | 8:19.14 | 221464 | 258902
Range status and errors
Selected range
Filename K:\Trivium - The Crusade.wav
Peak level 100.0 %
Range quality 100.0 %
Copy CRC 2DDEA020
Copy OK
No errors occurred
AccurateRip summary
Track 1 accurately ripped (confidence 3) [943F6B8E]
Track 2 accurately ripped (confidence 3) [F4B23DF5]
Track 3 accurately ripped (confidence 3) [8D557CD4]
Track 4 accurately ripped (confidence 3) [B03F2E24]
Track 5 accurately ripped (confidence 3) [EF6EC62B]
Track 6 accurately ripped (confidence 3) [A21FDB2A]
Track 7 accurately ripped (confidence 3) [942AB98D]
Track 8 accurately ripped (confidence 3) [A139FF7A]
Track 9 accurately ripped (confidence 3) [1B35D57D]
Track 10 accurately ripped (confidence 3) [F8CD3EFA]
Track 11 accurately ripped (confidence 3) [035AE300]
Track 12 accurately ripped (confidence 3) [616576D7]
Track 13 accurately ripped (confidence 3) [83A25125]
All tracks accurately ripped
End of status report

2008 - Shogun (Special Edition)

Bonus DVD
RYM User Rating: 3.24
Продолжительность: 1:19:27
Трэклист:
01 - Kirisute Gomen
02 - Torn Between Scylla And Charybdis
03 - Down From The Sky"
04 - Into The Mouth Of Hell We March
05 - Throes Of Perdition
06 - Insurrection
07 - The Calamity
08 - He Who Spawned The Furies
09 - Of Prometheus And The Crucifix
10 - Like Callisto To A Star In Heaven
11 - Shogun
12 - Poison, The Knife Or The Noose
13 - Upon The Shores
14 - Iron Maiden

Доп. информация:
Shogun (?? Sh?gun) is the fourth studio album by American metal band Trivium. The album was released worldwide on various dates between September 23 and October 1, 2008 through Roadrunner Records. Work on the album is noted to have begun with producer Nick Raskulinecz in October 2007, with the band stating that they chose not to work with Jason Suecof again due to the fact that they wanted to explore new ideas. One song from the album, "Into the Mouth of Hell We March", was featured on the soundtrack for the 2008 video game Madden NFL 09.

Лог EAC

Exact Audio Copy V0.99 prebeta 4 from 23. January 2008
EAC extraction logfile from 30. March 2009, 15:33
Trivium / Shogun (Special Edition)
Used drive : ASUS DRW-1608P3S Adapter: 0 ID: 0
Read mode : Secure
Utilize accurate stream : Yes
Defeat audio cache : Yes
Make use of C2 pointers : No
Read offset correction : 48
Overread into Lead-In and Lead-Out : Yes
Fill up missing offset samples with silence : Yes
Delete leading and trailing silent blocks : No
Null samples used in CRC calculations : Yes
Used interface : Native Win32 interface for Win NT & 2000
Used output format : Internal WAV Routines
Sample format : 44.100 Hz; 16 Bit; Stereo
TOC of the extracted CD
Track | Start | Length | Start sector | End sector
---------------------------------------------------------
1 | 0:00.00 | 6:27.30 | 0 | 29054
2 | 6:27.30 | 6:49.52 | 29055 | 59781
3 | 13:17.07 | 5:34.33 | 59782 | 84864
4 | 18:51.40 | 5:52.01 | 84865 | 111265
5 | 24:43.41 | 5:54.10 | 111266 | 137825
6 | 30:37.51 | 4:57.04 | 137826 | 160104
7 | 35:34.55 | 4:58.11 | 160105 | 182465
8 | 40:32.66 | 4:07.61 | 182466 | 201051
9 | 44:40.52 | 4:40.21 | 201052 | 222072
10 | 49:20.73 | 5:25.40 | 222073 | 246487
11 | 54:46.38 | 11:21.44 | 246488 | 297606
12 | 66:08.07 | 4:14.17 | 297607 | 316673
13 | 70:22.24 | 5:21.14 | 316674 | 340762
14 | 75:43.38 | 3:43.46 | 340763 | 357533
Range status and errors
Selected range
Filename K:\Trivium - Shogun (Special Edition).wav
Peak level 100.0 %
Range quality 99.9 %
Copy CRC C4123C3D
Copy OK
No errors occurred
AccurateRip summary
Track 1 accurately ripped (confidence 10) [DAF2418E]
Track 2 accurately ripped (confidence 11) [97EEC8E5]
Track 3 accurately ripped (confidence 11) [9ED408F3]
Track 4 accurately ripped (confidence 11) [B4624789]
Track 5 accurately ripped (confidence 11) [4BB47CD1]
Track 6 accurately ripped (confidence 11) [963A8000]
Track 7 accurately ripped (confidence 11) [8E35C4DB]
Track 8 accurately ripped (confidence 11) [6C4F1C71]
Track 9 accurately ripped (confidence 11) [1E7CC2AD]
Track 10 accurately ripped (confidence 11) [9E016DE4]
Track 11 accurately ripped (confidence 11) [8865EBA8]
Track 12 accurately ripped (confidence 11) [D6668702]
Track 13 accurately ripped (confidence 11) [D3CAE88F]
Track 14 accurately ripped (confidence 11) [5E1880A4]
All tracks accurately ripped
End of status report

2011 - In Waves (Special Edition)

RYM User Rating: 3.16
Продолжительность: 1:07:47
Трэклист:
01 - Capsizing The Sea
02 - In Waves
03 - Inception Of The End
04 - Dusk Dismantled
05 - Watch The World Burn
06 - Black
07 - A Skyline's Severance
08 - Ensnare The Sun
09 - Built To Fall
10 - Caustic Are The Ties That Bind
11 - Forsake Not The Dream
12 - Drowning In Slow Motion
13 - A Grey So Dark
14 - Chaos Reigns
15 - Of All These Yesterdays
16 - Leaving This World Behind
17 - Shattering The Skies Above
18 - Slave New World

Доп. информация:
In Waves is the fifth studio album by American heavy metal band Trivium, released worldwide on various dates August 2, 2011 and August 9, 2011 through Roadrunner Records. This album is the first record to feature new drummer Nick Augusto after previous drummer Travis Smith departed in 2009. In various interviews, the band has stated that the album sounds closer to the style of Ascendancy than the style exhibited on The Crusade and Shogun. In Waves sold 22,000 copies in its first week of release and debuted at #13 on the Billboard 200 and at #1 on the Billboard Hard Rock charts, making it the highest charting record Trivium has released to date. In Canada, the album debuted at #32 on the Canadian Albums Chart.

Лог EAC

Exact Audio Copy V1.0 beta 2 from 29. April 2011
EAC extraction logfile from 9. August 2011, 17:59
Trivium / In Waves (Special Edition)
Used drive : ASUS DRW-24B1ST a Adapter: 0 ID: 2
Read mode : Secure
Utilize accurate stream : Yes
Defeat audio cache : Yes
Make use of C2 pointers : No
Read offset correction : 6
Overread into Lead-In and Lead-Out : No
Fill up missing offset samples with silence : Yes
Delete leading and trailing silent blocks : No
Null samples used in CRC calculations : Yes
Used interface : Native Win32 interface for Win NT & 2000
Gap handling : Appended to previous track
Used output format : User Defined Encoder
Selected bitrate : 768 kBit/s
Quality : High
Add ID3 tag : No
Command line compressor : C:\Program Files (x86)\Exact Audio Copy\FLAC\FLAC.EXE
Additional command line options : -V -8 -T "ARTIST=%artist%" -T "TITLE=%title%" -T "ALBUM=%albumtitle%" -T "DATE=%year%" -T "TRACKNUMBER=%tracknr%" -T "GENRE=%genre%" %source%
TOC of the extracted CD
Track | Start | Length | Start sector | End sector
---------------------------------------------------------
1 | 0:00.00 | 1:30.46 | 0 | 6795
2 | 1:30.46 | 5:02.35 | 6796 | 29480
3 | 6:33.06 | 3:48.03 | 29481 | 46583
4 | 10:21.09 | 3:47.39 | 46584 | 63647
5 | 14:08.48 | 4:53.07 | 63648 | 85629
6 | 19:01.55 | 3:27.67 | 85630 | 101221
7 | 22:29.47 | 4:52.12 | 101222 | 123133
8 | 27:21.59 | 1:22.34 | 123134 | 129317
9 | 28:44.18 | 3:08.14 | 129318 | 143431
10 | 31:52.32 | 5:34.71 | 143432 | 168552
11 | 37:27.28 | 5:20.51 | 168553 | 192603
12 | 42:48.04 | 4:29.69 | 192604 | 212847
13 | 47:17.73 | 2:41.25 | 212848 | 224947
14 | 49:59.23 | 4:07.50 | 224948 | 243522
15 | 54:06.73 | 4:21.43 | 243523 | 263140
16 | 58:28.41 | 1:37.43 | 263141 | 270458
17 | 60:06.09 | 4:42.36 | 270459 | 291644
18 | 64:48.45 | 2:58.21 | 291645 | 305015
Track 1
Filename D:\EACrips\Trivium - 2011 - In Waves (Special Edition) [FLAC]\01 - Capsizing the Sea.wav
Pre-gap length 0:00:02.00
Peak level 96.0 %
Extraction speed 1.8 X
Track quality 99.8 %
Test CRC 83101EFB
Copy CRC 83101EFB
Track not present in AccurateRip database
Copy OK
Track 2
Filename D:\EACrips\Trivium - 2011 - In Waves (Special Edition) [FLAC]\02 - In Waves.wav
Peak level 97.8 %
Extraction speed 3.3 X
Track quality 99.9 %
Test CRC D67CC3EF
Copy CRC D67CC3EF
Track not present in AccurateRip database
Copy OK
Track 3
Filename D:\EACrips\Trivium - 2011 - In Waves (Special Edition) [FLAC]\03 - Inception of the End.wav
Peak level 97.7 %
Extraction speed 3.4 X
Track quality 99.9 %
Test CRC 3935B28D
Copy CRC 3935B28D
Track not present in AccurateRip database
Copy OK
Track 4
Filename D:\EACrips\Trivium - 2011 - In Waves (Special Edition) [FLAC]\04 - Dusk Dismantled.wav
Peak level 97.7 %
Extraction speed 4.5 X
Track quality 100.0 %
Test CRC BAB1E7A8
Copy CRC BAB1E7A8
Track not present in AccurateRip database
Copy OK
Track 5
Filename D:\EACrips\Trivium - 2011 - In Waves (Special Edition) [FLAC]\05 - Watch the World Burn.wav
Peak level 97.7 %
Extraction speed 5.0 X
Track quality 100.0 %
Test CRC 283B6A99
Copy CRC 283B6A99
Track not present in AccurateRip database
Copy OK
Track 6
Filename D:\EACrips\Trivium - 2011 - In Waves (Special Edition) [FLAC]\06 - Black.wav
Peak level 97.7 %
Extraction speed 5.1 X
Track quality 100.0 %
Test CRC 16117509
Copy CRC 16117509
Track not present in AccurateRip database
Copy OK
Track 7
Filename D:\EACrips\Trivium - 2011 - In Waves (Special Edition) [FLAC]\07 - A Skyline's Severance.wav
Peak level 97.7 %
Extraction speed 4.7 X
Track quality 99.9 %
Test CRC 19BD819A
Copy CRC 19BD819A
Track not present in AccurateRip database
Copy OK
Track 8
Filename D:\EACrips\Trivium - 2011 - In Waves (Special Edition) [FLAC]\08 - Ensnare the Sun.wav
Peak level 97.6 %
Extraction speed 4.4 X
Track quality 100.0 %
Test CRC 3E212C8B
Copy CRC 3E212C8B
Track not present in AccurateRip database
Copy OK
Track 9
Filename D:\EACrips\Trivium - 2011 - In Waves (Special Edition) [FLAC]\09 - Built to Fall.wav
Peak level 97.7 %
Extraction speed 5.5 X
Track quality 100.0 %
Test CRC 6EA05BB5
Copy CRC 6EA05BB5
Track not present in AccurateRip database
Copy OK
Track 10
Filename D:\EACrips\Trivium - 2011 - In Waves (Special Edition) [FLAC]\10 - Caustic Are the Ties That Bind.wav
Peak level 97.8 %
Extraction speed 5.3 X
Track quality 99.9 %
Test CRC 2881FB94
Copy CRC 2881FB94
Track not present in AccurateRip database
Copy OK
Track 11
Filename D:\EACrips\Trivium - 2011 - In Waves (Special Edition) [FLAC]\11 - Forsake Not the Dream.wav
Peak level 97.7 %
Extraction speed 5.5 X
Track quality 99.9 %
Test CRC 13DAC985
Copy CRC 13DAC985
Track not present in AccurateRip database
Copy OK
Track 12
Filename D:\EACrips\Trivium - 2011 - In Waves (Special Edition) [FLAC]\12 - Drowning in Slow Motion.wav
Peak level 97.7 %
Extraction speed 5.5 X
Track quality 99.9 %
Test CRC 22529BAD
Copy CRC 22529BAD
Track not present in AccurateRip database
Copy OK
Track 13
Filename D:\EACrips\Trivium - 2011 - In Waves (Special Edition) [FLAC]\13 - A Grey So Dark.wav
Peak level 97.7 %
Extraction speed 4.6 X
Track quality 99.9 %
Test CRC B2B174E7
Copy CRC B2B174E7
Track not present in AccurateRip database
Copy OK
Track 14
Filename D:\EACrips\Trivium - 2011 - In Waves (Special Edition) [FLAC]\14 - Chaos Reigns.wav
Peak level 97.7 %
Extraction speed 5.6 X
Track quality 99.9 %
Test CRC A45E7AA2
Copy CRC A45E7AA2
Track not present in AccurateRip database
Copy OK
Track 15
Filename D:\EACrips\Trivium - 2011 - In Waves (Special Edition) [FLAC]\15 - Of All These Yesterdays.wav
Peak level 97.7 %
Extraction speed 5.8 X
Track quality 99.9 %
Test CRC 24F825CE
Copy CRC 24F825CE
Track not present in AccurateRip database
Copy OK
Track 16
Filename D:\EACrips\Trivium - 2011 - In Waves (Special Edition) [FLAC]\16 - Leaving This World Behind.wav
Peak level 88.9 %
Extraction speed 3.9 X
Track quality 99.8 %
Test CRC B7C25F53
Copy CRC B7C25F53
Track not present in AccurateRip database
Copy OK
Track 17
Filename D:\EACrips\Trivium - 2011 - In Waves (Special Edition) [FLAC]\17 - Shattering the Skies Above.wav
Pre-gap length 0:00:04.74
Peak level 97.7 %
Extraction speed 7.6 X
Track quality 100.0 %
Test CRC 946DA8F0
Copy CRC 946DA8F0
Track not present in AccurateRip database
Copy OK
Track 18
Filename D:\EACrips\Trivium - 2011 - In Waves (Special Edition) [FLAC]\18 - Slave New World.wav
Peak level 97.7 %
Extraction speed 5.4 X
Track quality 99.9 %
Test CRC E77B58ED
Copy CRC E77B58ED
Track not present in AccurateRip database
Copy OK
None of the tracks are present in the AccurateRip database
No errors occurred
End of status report
==== Log checksum 7AC22841D985AD277857B23FEFE71CFAB113C6EA749A2C11FB3C4DD0A895E98D ====

Содержание файла .cue

REM GENRE Metalcore
REM DATE 2011
REM DISCID EE0FE212
REM COMMENT "ExactAudioCopy v1.0b2"
PERFORMER "Trivium"
TITLE "In Waves (Special Edition)"
FILE "01 - Capsizing The Sea.wav" WAVE
TRACK 01 AUDIO
TITLE "Capsizing The Sea"
PERFORMER "Trivium"
INDEX 01 00:00:00
FILE "02 - In Waves.wav" WAVE
TRACK 02 AUDIO
TITLE "In Waves"
PERFORMER "Trivium"
INDEX 01 00:00:00
FILE "03 - Inception Of The End.wav" WAVE
TRACK 03 AUDIO
TITLE "Inception Of The End"
PERFORMER "Trivium"
INDEX 01 00:00:00
FILE "04 - Dusk Dismantled.wav" WAVE
TRACK 04 AUDIO
TITLE "Dusk Dismantled"
PERFORMER "Trivium"
INDEX 01 00:00:00
FILE "05 - Watch The World Burn.wav" WAVE
TRACK 05 AUDIO
TITLE "Watch The World Burn"
PERFORMER "Trivium"
INDEX 01 00:00:00
FILE "06 - Black.wav" WAVE
TRACK 06 AUDIO
TITLE "Black"
PERFORMER "Trivium"
INDEX 01 00:00:00
FILE "07 - A Skyline's Severance.wav" WAVE
TRACK 07 AUDIO
TITLE "A Skyline's Severance"
PERFORMER "Trivium"
INDEX 01 00:00:00
FILE "08 - Ensnare The Sun.wav" WAVE
TRACK 08 AUDIO
TITLE "Ensnare The Sun"
PERFORMER "Trivium"
INDEX 01 00:00:00
FILE "09 - Built To Fall.wav" WAVE
TRACK 09 AUDIO
TITLE "Built To Fall"
PERFORMER "Trivium"
INDEX 01 00:00:00
FILE "10 - Caustic Are The Ties That Bind.wav" WAVE
TRACK 10 AUDIO
TITLE "Caustic Are The Ties That Bind"
PERFORMER "Trivium"
INDEX 01 00:00:00
FILE "11 - Forsake Not The Dream.wav" WAVE
TRACK 11 AUDIO
TITLE "Forsake Not The Dream"
PERFORMER "Trivium"
INDEX 01 00:00:00
FILE "12 - Drowning In Slow Motion.wav" WAVE
TRACK 12 AUDIO
TITLE "Drowning In Slow Motion"
PERFORMER "Trivium"
INDEX 01 00:00:00
FILE "13 - A Grey So Dark.wav" WAVE
TRACK 13 AUDIO
TITLE "A Grey So Dark"
PERFORMER "Trivium"
INDEX 01 00:00:00
FILE "14 - Chaos Reigns.wav" WAVE
TRACK 14 AUDIO
TITLE "Chaos Reigns"
PERFORMER "Trivium"
INDEX 01 00:00:00
FILE "15 - Of All These Yesterdays.wav" WAVE
TRACK 15 AUDIO
TITLE "Of All These Yesterdays"
PERFORMER "Trivium"
INDEX 01 00:00:00
FILE "16 - Leaving This World Behind.wav" WAVE
TRACK 16 AUDIO
TITLE "Leaving This World Behind"
PERFORMER "Trivium"
INDEX 01 00:00:00
TRACK 17 AUDIO
INDEX 00 01:32:62
FILE "17 - Shattering The Skies Above.wav" WAVE
TITLE "Shattering The Skies Above"
PERFORMER "Trivium"
INDEX 01 00:00:00
FILE "18 - Slave New World.wav" WAVE
TRACK 18 AUDIO
TITLE "Slave New World"
PERFORMER "Trivium"
INDEX 01 00:00:00

[Цитировать]



Показать сообщения:    

Текущее время: 04-Дек 07:04

Часовой пояс: UTC + 3


Вы не можете начинать темы
Вы не можете отвечать на сообщения
Вы не можете редактировать свои сообщения
Вы не можете удалять свои сообщения
Вы не можете голосовать в опросах
Вы не можете прикреплять файлы к сообщениям
Вы не можете скачивать файлы

!ВНИМАНИЕ!
Сайт не предоставляет электронные версии произведений, а занимается лишь коллекционированием и каталогизацией ссылок, присылаемых и публикуемых на форуме нашими читателями. Если вы являетесь правообладателем какого-либо представленного материала и не желаете, чтобы ссылка на него находилась в нашем каталоге, свяжитесь с нами, и мы незамедлительно удалим ее. Файлы для обмена на трекере предоставлены пользователями сайта, и администрация не несет ответственности за их содержание. Просьба не заливать файлы, защищенные авторскими правами, а также файлы нелегального содержания!