[ Сегодня идет свободное скачивание без начисления Download ]


Статистика раздачи
Скачал: [ 2 ]
 
   
 
Top  
 
 
Рождественская история / A Christmas Carol Название: Рождественская история
Оригинальное название: A Christmas Carol
Год выпуска: 2009
Страна: США
Жанр: мультфильм, фэнтези, драма, семейный
Продолжительность: 01:35:48
Перевод: Дубляж, Оригинальный
Субтитры: русские (Полные), английские (Полные)
Режиссер: Роберт Земекис
В ролях: Джим Керри (Scrooge / Ghost of Christmas Past / Scrooge as a Young Boy / Scrooge as a Teenage Boy / Scrooge as a Young Man / Scrooge as a Middle Aged Man / Ghost of Christmas Present / Ghost of Christmas Yet to Come), Гари Олдман (Bob Cratchit / Marley / Tiny Tim), Колин Фёрт (Fred), Кэри Элвис (Portly Gentleman #1 / Dick Wilkins / Mad Fiddler / Guest #2 / Business Man #1), Робин Райт (Fan / Belle), Боб Хоскинс (Fezziwig / Old Joe), Стив Валентайн (Funerary Undertaker / Topper), Дэрил Сабара (Undertaker's Apprentice / Tattered Caroler / Beggar Boy / Peter Cratchit / Well Dressed Caroler), Сэйдж Райан (Tattered Caroler), Эмбер Гейни Миде (Tattered Caroler / Well Dressed Caroler), Райан Очоа (Tattered Caroler / Beggar Boy / Young Cratchit Boy / Ignorance Boy / Young Boy with Sleigh), Бобби Пейдж (Tattered Caroler / Well Dressed Caroler)
Описание:
Это викторианская поучительная история о старом и ожесточившемся скупердяе Эбенезере Скрудже, который в течение одной ночи переживает испытание глубокого очищения. Мистер Скрудж - финансист/денежный меняла, который посвятил всю свою жизнь накоплению богатства. Он презирает всё, кроме денег, включая дружбу, любовь и рождественские праздники.
Рейтинг:

MPAA: PG - Рекомендуется присутствие родителей
Качество: BDRip-AVC 60fps
Формат: MKV
Видео: AVC, 1024x440 (2.35:1), 3700 kbps, 59,940 fps, 0,137 bpp
Аудио №1: русский / AC3 / 5.1 / 48 kHz / 640 kbps / 16 bit
Аудио №2: английский / AC3 / 5.1 / 48 kHz / 640 kbps / 16 bit
Навигация по главам: есть

ОтчетМедиаИнфо

General
Unique ID : 196514448770473389575942430173531739025 (0x93D74E5F2328C12D8D3CE0F472B41391)
Format : Matroska
Format version : Version 4 / Version 2
File size : 3.34 GiB
Duration : 1h 35mn
Overall bit rate : 4 988 Kbps
Movie name : Tiberiumsun69
Encoded date : UTC 2015-12-31 07:59:19
Writing application : mkvmerge v8.3.0 ('Over the Horizon') 64bit
Writing library : libebml v1.3.1 + libmatroska v1.4.2
Attachment : Yes
Video
ID : 1
Format : AVC
Format/Info : Advanced Video Codec
Format profile : High@L4.1
Format settings, CABAC : Yes
Format settings, ReFrames : 4 frames
Codec ID : V_MPEG4/ISO/AVC
Duration : 1h 35mn
Bit rate : 3 700 Kbps
Width : 1 024 pixels
Height : 440 pixels
Display aspect ratio : 2.35:1
Frame rate : 59.940 fps
Color space : YUV
Chroma subsampling : 4:2:0
Bit depth : 8 bits
Scan type : Progressive
Bits/(Pixel*Frame) : 0.137
Stream size : 2.41 GiB (72%)
Title : Tiberiumsun69
Writing library : x264 core 146 r2538 121396c
Encoding settings : cabac=1 / ref=3 / deblock=1:0:0 / analyse=0x3:0x113 / me=umh / subme=9 / psy=1 / psy_rd=1.00:0.10 / mixed_ref=1 / me_range=32 / chroma_me=1 / trellis=2 / 8x8dct=1 / cqm=0 / deadzone=21,11 / fast_pskip=0 / chroma_qp_offset=-3 / threads=12 / lookahead_threads=3 / sliced_threads=0 / nr=0 / decimate=1 / interlaced=0 / bluray_compat=0 / constrained_intra=0 / bframes=16 / b_pyramid=2 / b_adapt=2 / b_bias=0 / direct=3 / weightb=1 / open_gop=0 / weightp=2 / keyint=250 / keyint_min=25 / scenecut=40 / intra_refresh=0 / rc_lookahead=40 / rc=2pass / mbtree=0 / bitrate=3700 / ratetol=1.0 / qcomp=0.60 / qpmin=0 / qpmax=69 / qpstep=4 / cplxblur=20.0 / qblur=0.5 / vbv_maxrate=14000 / vbv_bufsize=14000 / nal_hrd=none / filler=0 / ip_ratio=1.40 / pb_ratio=1.30 / aq=1:1.00
Language : English
Default : Yes
Forced : No
Audio #1
ID : 2
Format : AC-3
Format/Info : Audio Coding 3
Mode extension : CM (complete main)
Codec ID : A_AC3
Duration : 1h 35mn
Bit rate mode : Constant
Bit rate : 640 Kbps
Channel(s) : 6 channels
Channel positions : Front: L C R, Side: L R, LFE
Sampling rate : 48.0 KHz
Bit depth : 16 bits
Compression mode : Lossy
Delay relative to video : 24ms
Stream size : 439 MiB (13%)
Title : Дубляж
Language : Russian
Default : Yes
Forced : No
Audio #2
ID : 3
Format : AC-3
Format/Info : Audio Coding 3
Mode extension : CM (complete main)
Codec ID : A_AC3
Duration : 1h 35mn
Bit rate mode : Constant
Bit rate : 640 Kbps
Channel(s) : 6 channels
Channel positions : Front: L C R, Side: L R, LFE
Sampling rate : 48.0 KHz
Bit depth : 16 bits
Compression mode : Lossy
Delay relative to video : 24ms
Stream size : 439 MiB (13%)
Title : Оригинал
Language : English
Default : No
Forced : No
Text #1
ID : 4
Format : UTF-8
Codec ID : S_TEXT/UTF8
Codec ID/Info : UTF-8 Plain Text
Title : Полные
Language : Russian
Default : No
Forced : No
Text #2
ID : 5
Format : UTF-8
Codec ID : S_TEXT/UTF8
Codec ID/Info : UTF-8 Plain Text
Title : Полные
Language : English
Default : No
Forced : No
Menu
00:00:00.000 : en:
00:07:41.878 : en:
00:16:05.172 : en:
00:29:16.379 : en:
00:37:11.562 : en:
00:41:05.629 : en:
00:44:56.318 : en:
00:57:08.133 : en:
01:01:45.368 : en:
01:08:40.533 : en:
01:11:08.889 : en:
01:15:53.507 : en:
01:19:31.808 : en:
01:25:22.909 : en:
01:27:21.569 : en:
01:30:21.290 : en:
01:35:48.743 : en:

Скриншоты

Авторство группы

[Цитировать]



Показать сообщения:    

Текущее время: 10-Дек 08:05

Часовой пояс: UTC + 3


Вы не можете начинать темы
Вы не можете отвечать на сообщения
Вы не можете редактировать свои сообщения
Вы не можете удалять свои сообщения
Вы не можете голосовать в опросах
Вы не можете прикреплять файлы к сообщениям
Вы не можете скачивать файлы

!ВНИМАНИЕ!
Сайт не предоставляет электронные версии произведений, а занимается лишь коллекционированием и каталогизацией ссылок, присылаемых и публикуемых на форуме нашими читателями. Если вы являетесь правообладателем какого-либо представленного материала и не желаете, чтобы ссылка на него находилась в нашем каталоге, свяжитесь с нами, и мы незамедлительно удалим ее. Файлы для обмена на трекере предоставлены пользователями сайта, и администрация не несет ответственности за их содержание. Просьба не заливать файлы, защищенные авторскими правами, а также файлы нелегального содержания!