[ Сегодня идет свободное скачивание без начисления Download ]


Статистика раздачи
Скачал: [ 1 ]
 
   
 
Top  
 
 
Гринч – похититель Рождества / How the Grinch Stole Christmas Название: Гринч – похититель Рождества
Оригинальное название: How the Grinch Stole Christmas
Год выпуска: 2000
Страна: США, Германия
Жанр: фэнтези, комедия, семейный
Продолжительность: 01:44:56
Перевод: Профессиональный (многоголосый) Карусель №1, Карусель №2, Премьер-Видео
Субтитры: русские (Полные), английские (Полные)
Режиссер: Рон Ховард
В ролях: Джим Керри (Grinch), Тейлор Момсен (Cindy Lou Who), Келли (Max), Джеффри Тэмбор (Mayor Augustus Maywho), Кристин Барански (Martha May Whovier), Билл Ирвин (Lou Lou Who), Молли Шеннон (Betty Lou Who), Клинт Ховард (Whobris), Джош Райан Эванс (8-Year-Old Grinch), Минди Стерлинг (Clarnella), Рэйчел Уинфри (Rose), Рэнс Ховард (Elderly Timekeeper)
Описание:
Жил-был в городе Ктограде человечек, и звали его - Гринч. Был он весь зеленый и волосатый, никто его не любил. Обиделся Гринч на ктовичей и ушел жить на одинокую, обдуваемую всеми ветрами гору. Сидел там в своей пещере и злился на весь свет. Больше всего Гринч ненавидел Рождество. В то время, как все население Ктограда веселилось от души, барометр и без того всегда плохого настроения Гринча показывал нечто ужасное.
Каждое Рождество становилось для зеленого отшельника страшной пыткой. И вот однажды злобный житель горы решил покончить с этим праздником раз и навсегда. Пока беззаботные ктовичи сладко спали впредпраздничную ночь, вероломный Гринч решил украсть у горожан их Рождество.
Рейтинг:

MPAA: PG - Рекомендуется присутствие родителей
Качество: BDRip-AVC 60fps
Формат: MKV
Видео: AVC, 1024x552 (1.855), 4180 kbps, 59,940 fps, 0,123 bpp
Аудио №1: русский / AC3 / 5.1 / 48 kHz / 448 kbps / 16 bit |Карусель №1|
Аудио №2: русский / AC3 / 5.1 / 48 kHz / 448 kbps / 16 bit |Карусель №2|
Аудио №3: русский / AC3 / 2.0 / 48 kHz / 192 kbps / 16 bit |Премьер-Видео|
Навигация по главам: есть

ОтчетМедиаИнфо

General
Unique ID : 217954920902360079610735841286998838318 (0xA3F8974334E0E7F198385252E249CC2E)
Format : Matroska
Format version : Version 4 / Version 2
File size : 3.87 GiB
Duration : 1h 44mn
Overall bit rate : 5 274 Kbps
Movie name : Tiberiumsun69
Encoded date : UTC 2015-12-31 07:40:07
Writing application : mkvmerge v8.3.0 ('Over the Horizon') 64bit
Writing library : libebml v1.3.1 + libmatroska v1.4.2
Attachment : Yes
Video
ID : 1
Format : AVC
Format/Info : Advanced Video Codec
Format profile : High@L4.1
Format settings, CABAC : Yes
Format settings, ReFrames : 4 frames
Codec ID : V_MPEG4/ISO/AVC
Duration : 1h 44mn
Bit rate : 4 180 Kbps
Width : 1 024 pixels
Height : 552 pixels
Display aspect ratio : 1.855
Frame rate : 59.940 fps
Color space : YUV
Chroma subsampling : 4:2:0
Bit depth : 8 bits
Scan type : Progressive
Bits/(Pixel*Frame) : 0.123
Stream size : 2.99 GiB (77%)
Title : Tiberiumsun69
Writing library : x264 core 146 r2538 121396c
Encoding settings : cabac=1 / ref=3 / deblock=1:0:0 / analyse=0x3:0x113 / me=umh / subme=11 / psy=1 / psy_rd=1.00:0.10 / mixed_ref=1 / me_range=32 / chroma_me=1 / trellis=2 / 8x8dct=1 / cqm=0 / deadzone=21,11 / fast_pskip=0 / chroma_qp_offset=-3 / threads=12 / lookahead_threads=3 / sliced_threads=0 / nr=0 / decimate=1 / interlaced=0 / bluray_compat=0 / constrained_intra=0 / bframes=16 / b_pyramid=2 / b_adapt=2 / b_bias=0 / direct=3 / weightb=1 / open_gop=0 / weightp=2 / keyint=250 / keyint_min=25 / scenecut=40 / intra_refresh=0 / rc_lookahead=40 / rc=2pass / mbtree=0 / bitrate=4180 / ratetol=1.0 / qcomp=0.60 / qpmin=0 / qpmax=69 / qpstep=4 / cplxblur=20.0 / qblur=0.5 / vbv_maxrate=14000 / vbv_bufsize=14000 / nal_hrd=none / filler=0 / ip_ratio=1.40 / pb_ratio=1.30 / aq=1:1.00
Language : English
Default : Yes
Forced : No
Audio #1
ID : 2
Format : AC-3
Format/Info : Audio Coding 3
Mode extension : CM (complete main)
Codec ID : A_AC3
Duration : 1h 44mn
Bit rate mode : Constant
Bit rate : 448 Kbps
Channel(s) : 6 channels
Channel positions : Front: L C R, Side: L R, LFE
Sampling rate : 48.0 KHz
Bit depth : 16 bits
Compression mode : Lossy
Stream size : 336 MiB (8%)
Title : MVO Карусель #1
Language : Russian
Default : Yes
Forced : No
Audio #2
ID : 3
Format : AC-3
Format/Info : Audio Coding 3
Mode extension : CM (complete main)
Codec ID : A_AC3
Duration : 1h 44mn
Bit rate mode : Constant
Bit rate : 448 Kbps
Channel(s) : 6 channels
Channel positions : Front: L C R, Side: L R, LFE
Sampling rate : 48.0 KHz
Bit depth : 16 bits
Compression mode : Lossy
Stream size : 336 MiB (8%)
Title : MVO Карусель #2
Language : Russian
Default : No
Forced : No
Audio #3
ID : 4
Format : AC-3
Format/Info : Audio Coding 3
Mode extension : CM (complete main)
Codec ID : A_AC3
Duration : 1h 44mn
Bit rate mode : Constant
Bit rate : 192 Kbps
Channel(s) : 2 channels
Channel positions : Front: L R
Sampling rate : 48.0 KHz
Bit depth : 16 bits
Compression mode : Lossy
Stream size : 144 MiB (4%)
Title : MVO Премьер-Видео
Language : Russian
Default : No
Forced : No
Text #1
ID : 5
Format : UTF-8
Codec ID : S_TEXT/UTF8
Codec ID/Info : UTF-8 Plain Text
Title : Полные
Language : Russian
Default : No
Forced : No
Text #2
ID : 6
Format : UTF-8
Codec ID : S_TEXT/UTF8
Codec ID/Info : UTF-8 Plain Text
Title : Полные
Language : English
Default : No
Forced : No
Menu
00:00:00.000 : :1. A Whoville Christmas
00:03:38.383 : :2. Meet the Grinch
00:10:26.792 : :3. Condy Lou's Savior
00:17:50.818 : :4. Christmas, Why Can't I Find You?
00:19:21.951 : :5. No Place Like Home
00:23:36.498 : :6. The Grinch's Story
00:33:29.089 : :7. Cindy Lou's Candidate
00:36:54.795 : :8. The Invitation
00:44:05.434 : :9. Second Thoughts
00:47:12.788 : :10. The Holiday Cheermeister
00:52:58.215 : :11. The Grinch's Revenge
00:59:39.117 : :12. A Wonderful, Awful Idea
01:02:39.672 : :13. You're a Mean One, Mr. Grinch
01:07:04.353 : :14. Grinchy Claus
01:14:36.637 : :15. To Take Every Present
01:18:12.354 : :16. Christmas Destroyed
01:22:01.041 : :17. A Change of Heart
01:27:18.065 : :18. To Save Cindy Lou
01:30:21.623 : :19. Merry Christmas, Mr. Grinch
01:37:52.448 : :20. End Titles

Скриншоты

Авторство группы

[Цитировать]



Показать сообщения:    

Текущее время: 09-Дек 20:18

Часовой пояс: UTC + 3


Вы не можете начинать темы
Вы не можете отвечать на сообщения
Вы не можете редактировать свои сообщения
Вы не можете удалять свои сообщения
Вы не можете голосовать в опросах
Вы не можете прикреплять файлы к сообщениям
Вы не можете скачивать файлы

!ВНИМАНИЕ!
Сайт не предоставляет электронные версии произведений, а занимается лишь коллекционированием и каталогизацией ссылок, присылаемых и публикуемых на форуме нашими читателями. Если вы являетесь правообладателем какого-либо представленного материала и не желаете, чтобы ссылка на него находилась в нашем каталоге, свяжитесь с нами, и мы незамедлительно удалим ее. Файлы для обмена на трекере предоставлены пользователями сайта, и администрация не несет ответственности за их содержание. Просьба не заливать файлы, защищенные авторскими правами, а также файлы нелегального содержания!