[ Сегодня идет свободное скачивание без начисления Download ]


Статистика раздачи
Скачал: [ 3 ]
 
   
 
Top  
 
 
Ночной дозор Название: Ночной дозор
Год выпуска: 2004
Страна: Россия
Жанр: фэнтези, боевик, триллер
Продолжительность: 01:54:21
Перевод: Оригинальный
Субтитры: русские (Форсированные на английскую речь)
Режиссер: Тимур Бекмамбетов
В ролях: Константин Хабенский (Антон Городецкий), Владимир Меньшов (Гессер), Валерий Золотухин (Отец Кости), Мария Порошина (Светлана), Галина Тюнина (Ольга), Гоша Куценко (Игнат), Алексей Чадов (Костя), Жанна Фриске (Алиса), Илья Лагутенко (Вампир Андрей), Виктор Вержбицкий (Завулон), Римма Маркова (Дарья Шульц, ведьма), Мария Миронова (Мать Егора)
Описание:
Все знают, что на ночных улицах опасно. Но в данном случае речь идет не о преступниках и маньяках. Когда наступает ночь, и силы Зла властвуют безраздельно, можно столкнуться с теми, с кем не встретишься днем - темными магами, вампирами и прочей нечистью. Их сила столь велика, что справиться с ними обычным оружием невозможно.
Но по следу «ночных охотников» идут те, кто веками сражается с порождениями сумрака и побеждает их, неукоснительно соблюдая при этом Договор, заключенный тысячелетия тому назад между Светлыми и Темными... Имя им - Ночной Дозор. Их предназначение - сохранение равновесия между Добром и Злом, нарушение которого вызывает разрушения, войны, революции, вселенские катастрофы.
Каждый плохой человеческий поступок - измена, предательство, убийство, равно, как и хороший, ложится на чашу весов, перевешивая их то в одну, то в другую сторону. Именно поэтому и силы Света, и силы Тьмы вынуждены существовать в двух мирах: реальном и потустороннем, пытаясь либо подтолкнуть человека к греху, либо отвратить от него...
Рейтинг:

MPAA: R - Лицам до 17 лет обязательно присутствие взрослого
Качество: BDRip-AVC 60fps
Формат: MKV
Видео: AVC, 1024x552 (1.855), 4300 kbps, 59,940 fps, 0,127 bpp
Аудио: русский / AC3 / 5.1 / 48 kHz / 640 kbps / 16 bit
Навигация по главам: есть

ОтчетМедиаИнфо

General
Unique ID : 191649279774615415664185350485427377156 (0x902E4F053F50F509A299DF9FDA985404)
Format : Matroska
Format version : Version 4 / Version 2
File size : 3.95 GiB
Duration : 1h 54mn
Overall bit rate : 4 944 Kbps
Movie name : Tiberiumsun69
Encoded date : UTC 2015-12-31 06:42:07
Writing application : mkvmerge v8.3.0 ('Over the Horizon') 64bit
Writing library : libebml v1.3.1 + libmatroska v1.4.2
Attachment : Yes
Video
ID : 1
Format : AVC
Format/Info : Advanced Video Codec
Format profile : High@L4.1
Format settings, CABAC : Yes
Format settings, ReFrames : 4 frames
Codec ID : V_MPEG4/ISO/AVC
Duration : 1h 54mn
Bit rate : 4 300 Kbps
Width : 1 024 pixels
Height : 552 pixels
Display aspect ratio : 1.855
Frame rate : 59.940 fps
Color space : YUV
Chroma subsampling : 4:2:0
Bit depth : 8 bits
Scan type : Progressive
Bits/(Pixel*Frame) : 0.127
Stream size : 3.36 GiB (85%)
Title : Tiberiumsun69
Writing library : x264 core 146 r2538 121396c
Encoding settings : cabac=1 / ref=3 / deblock=1:0:0 / analyse=0x3:0x113 / me=umh / subme=9 / psy=1 / psy_rd=1.00:0.10 / mixed_ref=1 / me_range=32 / chroma_me=1 / trellis=2 / 8x8dct=1 / cqm=0 / deadzone=21,11 / fast_pskip=0 / chroma_qp_offset=-3 / threads=12 / lookahead_threads=3 / sliced_threads=0 / nr=0 / decimate=1 / interlaced=0 / bluray_compat=0 / constrained_intra=0 / bframes=16 / b_pyramid=2 / b_adapt=2 / b_bias=0 / direct=3 / weightb=1 / open_gop=0 / weightp=2 / keyint=250 / keyint_min=25 / scenecut=40 / intra_refresh=0 / rc_lookahead=40 / rc=2pass / mbtree=0 / bitrate=4300 / ratetol=1.0 / qcomp=0.60 / qpmin=0 / qpmax=69 / qpstep=4 / cplxblur=20.0 / qblur=0.5 / vbv_maxrate=14000 / vbv_bufsize=14000 / nal_hrd=none / filler=0 / ip_ratio=1.40 / pb_ratio=1.30 / aq=1:1.00
Language : English
Default : Yes
Forced : No
Audio
ID : 2
Format : AC-3
Format/Info : Audio Coding 3
Mode extension : CM (complete main)
Codec ID : A_AC3
Duration : 1h 54mn
Bit rate mode : Constant
Bit rate : 640 Kbps
Channel(s) : 6 channels
Channel positions : Front: L C R, Side: L R, LFE
Sampling rate : 48.0 KHz
Bit depth : 16 bits
Compression mode : Lossy
Stream size : 524 MiB (13%)
Title : Оригинал
Language : Russian
Default : Yes
Forced : No
Text
ID : 3
Format : UTF-8
Codec ID : S_TEXT/UTF8
Codec ID/Info : UTF-8 Plain Text
Title : Форсированные
Language : Russian
Default : Yes
Forced : No
Menu
00:00:00.000 : en:Chapter 1
00:04:00.073 : en:Chapter 2
00:10:54.028 : en:Chapter 3
00:15:49.615 : en:Chapter 4
00:19:26.790 : en:Chapter 5
00:24:12.868 : en:Chapter 6
00:28:15.110 : en:Chapter 7
00:33:08.861 : en:Chapter 8
00:38:08.160 : en:Chapter 9
00:40:01.065 : en:Chapter 10
00:43:40.951 : en:Chapter 11
00:50:44.458 : en:Chapter 12
00:58:33.051 : en:Chapter 13
01:04:30.491 : en:Chapter 14
01:09:26.996 : en:Chapter 15
01:13:34.952 : en:Chapter 16
01:24:07.542 : en:Chapter 17
01:33:18.259 : en:Chapter 18
01:37:39.562 : en:Chapter 19
01:47:40.787 : en:Chapter 20

Скриншоты

Авторство группы

[Цитировать]



Показать сообщения:    

Текущее время: 09-Дек 18:34

Часовой пояс: UTC + 3


Вы не можете начинать темы
Вы не можете отвечать на сообщения
Вы не можете редактировать свои сообщения
Вы не можете удалять свои сообщения
Вы не можете голосовать в опросах
Вы не можете прикреплять файлы к сообщениям
Вы не можете скачивать файлы

!ВНИМАНИЕ!
Сайт не предоставляет электронные версии произведений, а занимается лишь коллекционированием и каталогизацией ссылок, присылаемых и публикуемых на форуме нашими читателями. Если вы являетесь правообладателем какого-либо представленного материала и не желаете, чтобы ссылка на него находилась в нашем каталоге, свяжитесь с нами, и мы незамедлительно удалим ее. Файлы для обмена на трекере предоставлены пользователями сайта, и администрация не несет ответственности за их содержание. Просьба не заливать файлы, защищенные авторскими правами, а также файлы нелегального содержания!