[ Сегодня идет свободное скачивание без начисления Download ]


Статистика раздачи
Скачал: [ 1 ]
 
   
 
Top  
 
 
Alice Cooper - дискография (24 альбома) Страна: USA, Detroit
Жанр: Glam/Shock Rock
Год выпуска: 1969-2005
Формат: APE (image + .cue) /где указано/, остальное FLAC (tracks)
Битрейт аудио: lossless
Продолжительность: очень долго
Доп. информация:
Элис Купер (настоящее имя Vincent Damon Furnier) родился 4 февраля 1948 года в Детройте, штат Мичиган, в семье проповедника. В школу он начал ходить уже в Фениксе, штат Аризона, куда перебралось семейство Фурнье. Здесь родились первые песни, здесь же в начале 60-х собралась первая команда единомышленников, называвшая себя Earwigs. Юному апологету рок-н-ролла не давали покоя лавры Beatles и Rolling Stones и его задача-минимум была стать таким же знаменитым. Меняя участников, группа была переименована сначала в Spiders, затем в Nazz, но все это время музыканты продолжали выступать в местных клубах и на танцплощадках и записывать синглы, получавшие кое-какую огласку в городе и окрестностях. Их известность сразу же приобрела скандальный характер. Местная пресса называла Spiders худшей группой города - за исключительные в своем роде клубные выступления, которые приводили к массовому бегству слушателей.
Достигнув 20-летнего возраста, Винсент Дэймон, который всегда руководствовался экстравагантной мотивацией, решил переименовать команду в Alice Cooper. Музыкант вдруг поверил, что он не кто иной как новое воплощение ведьмы, якобы жившей в 17 веке и носившей это имя. В ведьмовские страсти оказались вместе с ним втянуты еще четыре музыканта:
- лидер-гитарист Майкл Брюс (Michael Bruce; родился в Калифорнии в 1948 году);
- басист Деннис Данеуэй (Dennis Dunaway; родился в Орегоне в том же 48-м году);
- еще один гитарист Глен Бакстон (Glen Buxton; родился в 1947 году в Охайо);
- барабанщик Нил Смит (Neal Smith; Охайо, 1947 год).

Далее...

Имя Алисы Купер в его мужском эквиваленте вскоре стало ассоциироваться не столько с командой, сколько с ее фронтменом, который, вдохновившись богатой символикой этого образа, придумал даже специальную фишку - андрогинного персонажа в безобразной одежде. Музыканты играли абразивный рок, требовавший немалого мужества от слушателей, которые рисковали приходить на их концерты. Эксцентричные театрализованные шоу, обрушивавшие на публику агрессивный, неистовый хэви-метал, призваны были шокировать до отвращения. Вдохновение Купер энд Ко черпали в самых разных подручных источниках. Годились и фильмы ужасов, и водевили, и творчество собратьев по тяжелому цеху - Black Sabbath и Led Zeppelin.
После переезда в Лос-Анджелес в 1969 году команде Элиса Купера удалось вызвать дружеское расположение Фрэнка Заппы (Frank Zappa), который подписал их на своем новом лейбле Straight Records. В том же году они записали первый альбом "Pretties for You", предложив свой вариант эйсид-рока, а следом и второй лонг-плей "Easy Action" (1970). Пластинки прошли никем не замеченными, триумфальный въезд в шоу-бизнес на белом коне не состоялся, и музыканты решают вернуться в Детройт, где в последние годы живет семья Фурнье. Местную клубную сцену они используют, чтобы отточить и довести до блеска свои сценические эксперименты над зрителями. И лишь в конце 1970 года им удается заинтересовать собой боссов Warner Brothers Records.
Сингл "Eighteen", изданный в начале 1971 года, стал первопроходцем в карьере Alice Cooper, который попал Тор 30, причем поднялся до 21 строки. Огромную удачу принесло молодой команде сотрудничество с выдающимся продюсером Бобом Эзрином (Bob Ezrin), который и вывел их саунд на совершенно новый уровень. Записанный с ним третий альбом "Love It to Death" (1971) практически с момента рождения отвечал негласным требованиям классики хэви-метала. Что интересно, над аранжировками бился наряду с продюсером и сам фронтмен. Диск попал в американский Тор 40 и стал золотым. Это не значит, что команде Купера удалось создать идеальный альбом: его почти невозможно прослушать за один присест, как и большую часть записей группы начала 70-х.
Музыкальный язык Alice Cooper позволял ставить их в один ряд с другими детройтскими командами той эпохи (MC5, Stooges). Но была и принципиальная разница. К концу 1971 года Элис Купер внес существенные дополнения в шокирующий ассортимент своих шоу. Сценический реквизит включал теперь гильотину и электрический стул, по сцене текли реки искусственной крови, а сам носитель ведьмовского духа украшал шею живым удавом. Имидж лид-вокалиста довершал последний штрих - мрачный грим с огромными черными кругами вокруг глаз, подчеркивавшими демоническую составляющую образа. Слава Alice Coоper началась со слухов об их скандальных живых шоу, а за интересом к альбомам дело не стало.
Второе "золото" принес команде лонг-плей 1972 года "Killer". Но настоящим коммерческим прорывом группы стал бунтарский сингл и альбом "School's Out": оба попали в американский Тор 10, а сингл лидировал в британском чарте. Миллионный тираж лонг-плея в США приятно радовал честолюбие музыкантов. На этот раз Alice Cooper апеллировали к рок-фанам на гораздо более сложном уровне. "School's Out" был тщательно продуманной и композиционно выстроенной концептуальной работой. Некоторые вещи с этой пластинки квинтет так никогда и не решился озвучить со сцены. Среди лучших номеров значились хулиганский "Public Animal #9", неторопливый "Luney Tune" и зловещий "Blue Turk", с привкусом кабаре.
Успешные альбомы следуют один за другим. Пластинка "Billion Dollar Babies", самый раскрученный хит Alice Соoper, покоряет рейтинги продаж по обе стороны Атлантики. Чувствуется крепкая рука Боба Эзрина: саунд команды становится все более зрелым и отточенным. Заглавный трек "Billion Dollar Babies" остается одной из наиболее сильных записей в дискографии Alice Cooper. Эта композиция наравне с мощными "Hello Hooray", "Elected" и "No More Mr. Nice Guy" составляет золотой фонд рок-н-ролла.
Альбомы "Muscle of Love" (1973), сборник лучших песен "Greatest Hits" (1974) и "Welcome to My Nightmare" (1975) неизменно фигурируют в первой десятке бестселлеров США. На последней пластинке нужно остановиться отдельно. "Welcome to My Nightmare" - первый в полном смысле слова сольный альбом Элиса Купера, записанный им после роспуска группы. Когда команды Alice Cooper не стало, с ее именем, уже раскрученной торговой маркой, фронтмен так и не смог расстаться, официально закрепив его за собой. Для своих первых самостоятельных студийных сессий Купер пригласил бэк-музыкантов Лу Рида (Lou Reed): гитаристов Дика Вагнера (Dick Wagner) и Стива Хантера (Steve Hunter), басиста Пракаша Джона (Prakash John), клавишника Джозефа Кровски (Joseph Chrowski), барабанщика Пенти Глэна (Penti Glan). Самым удачным номером пластинки оказался хит-сингл "Only Women Bleed" (12-я строка поп-чарта). Продюсирование "Welcome to My Nightmare" вокалист предусмотрительно доверил Бобу Эзрину. Им удалось создать мощный концептуальный альбом, который прекрасно поддавался сценической интерпретации в рамках грандиозного театрализованного тура, которым артист открыл свою сольную карьеру. Скромным хитом на родине стал и следующий диск "Alice Cooper Goes to Hell" (1976), который разошелся полумиллионным тиражом.
Своей стремительно разнесшейся по миру популярностью музыкант был обязан, конечно, не только сценическому экстремизму. Его творчество было таким же необычным, из ряда вон выходящим. Основу саунда составляли простые, грубые риффы, по которым разливались мелодии в духе гитарного попа 60-х - это была сама рок-н-ролльная стихия в ее первозданной, не прирученной красоте, которую не портили даже экивоки в сторону психоделии и арт-рока. Позволяя себе на сцене все что угодно, за кулисами Купер оставался совершенно другим человеком. Голливудская знаменитость, он играл в гольф, выступал в телевизионных ток-шоу, завел дружбу с легендарным комедиантом Гручо Марксом (Groucho Marx), с которым собирался снять телесериал. Из этой затеи ничего не вышло, но дружбой с актером Элис чрезвычайно дорожил, так что после его смерти он выкупил одну из букв "O" из знаменитой надписи "Hollywood" на лос-анжелесском холме и посвятил ее памяти Гручо Маркса.
У Элиса Купера неоднократно появлялась возможность реализовать свои актерские амбиции: он снимался в фильмах "Sextette" и "Sgt. Pepper's Lonely Hearts Club Band". На какое-то время он так увлекся актерством, что музыка отошла на второй план. Он много работал на телевидении, участвовал в сериалах "The Muppets", "Celebrity Squares" и других.
В 1977 году артист подготовил два довольно посредственных альбома - "Lace and Whiskey" и концертник "Alice Cooper Show". Купер и сам был от них не в восторге, особенно скептически оценивая живой диск. Вторая половина 70-х и в творческом, и в коммерческом отношении не сулила музыканту ничего хорошего. Причину можно было искать в постоянной текучке кадров, но главным виновником был прогрессирующий алкоголизм. В 1978 году музыканту пришлось прибегнуть к крайней мере - пройти интенсивный курс реабилитации в нью-йоркской клинике. На больничной койке он не терял времени даром и своими впечатлениями и размышлениями поделился в новом альбоме "From the Inside" (1978), написанном вместе с Берни Топиным (Bernie Taupin), постоянным соавтором Элтона Джона (Elton John).
В конце 70-х - начале 80-х Элис Купер продолжал активно гастролировать со своей концертной командой, в которой с 1979 по 1982 годы играл лид-гитарист Майк Пинера (Mike Pinera), экс-участник Iron Butterfly.
В начале 80-х его студийные усилия приводят ко все менее привлекательным результатам, так что интерес публики к его релизам заметно падает. Пластинки "Flush the Fashion" (1980), "Special Forces" (1981), "Zipper Catches Skin" (1982), "Dada" (1983), хоть и попадают в американский чарт альбомов, но ютятся где-то на задворках.
Перешагнув тридцатилетний рубеж, Купер начинает иначе относиться к своему творчеству, ставит перед собой другие задачи. В студийном продукте театральные эффекты отходят на второй план, лучшим средством выражения его идей становится прямой, открытый хэви-метал. В то же время его живые шоу сохраняют практически все фирменные фишки, а он остается все таким же непревзойденным шоуменом, достойным звания короля шок-рока. Новая роль в фильме ужасов "Leviathan" (1984) вполне вписывалась в это амплуа.
В 1986 году после трехлетней паузы в дискографии Элис Купер подписывает контракт с MCA Records, но надежды решительно изменить ситуацию с переходом на другой лейбл не оправдались. Два альбома, записанные под эгидой MCA ("Constrictor" 1986 года и "Raise Your Fist and Yell", изданный в 1987-м), вообще не попали в американский рейтинг.
Только в 1989 году, после перехода на Epic Records, имя Элиса Купера возвращается в американский Тор 20. Удачу приносит музыканту новый лонг-плей "Trash" и представленный на нем трансатлантический хит "Poison". И альбом и сингл, спродюсированные прославленным хитмейкером Дезмондом Чайлдом (Desmond Child; работал с Aerosmith, Bon Jovi, KISS), продаются лучше, чем любая из самых удачных записей исполнителя в 70-е. Составом приглашенных музыкантов можно было гордиться не меньше, чем качеством записи: Джон Бон Джови (Jon Bon Jovi), Ричи Самбора (Richie Sambora; оба - Bon Jovi), Кип Уингер (Kip Winger; Winger), Стив Беторс (Stiv Bators; Dead Boys), музыканты Aerosmith. Песня "Poison" становится первым с 1977 года хитом Купера из первой десятки.
Альбом как будто возродил интерес артиста к жизни: он снова активно гастролирует, снимается в кино (в частности, в продолжении "Nightmare on Elm Street" и в фильме "Wayne's World"), готовит новые студийные записи. После малоудачного альбома "Prince of Darkness" (1989) Купер вернулся через два года с крепкой, очень качественной работой "Hey Stoopid". На альбоме ему аккомпанируют гитарные кудесники Джо Сатриани (Joe Satriani) и Стив Вай (Steve Vai), а также Джон Бон Джови, Ричи Самбора, Слэш (Slash) и Эксл Роуз (Axl Rose) из Guns N'Roses - профессионалы, которыми он неизменно восхищается.
С годами Элис Купер не собирался сдавать позиции. В 90-е его гастрольные туры привлекают новые поколения рок-фанов, молодую поросль, которая воспринимает его как пионера хэви-метала. Музыканту так и не удалось полностью возродить ту скандальную, остро актуальную популярность, которая сопровождала его в 70-е. Зато теперь он наслаждался всеми преимуществами комфортного культового статуса, положением живой легенды, чье творчество уже наполовину признано классикой, а новым релизам не страшны никакие критические шпильки. Это впечатление подтверждал лонг-плей 1994 года "The Last Temptation", который по своей стилистике был близок к "No More Tears" его коллеги по цеху Оззи Осборна. Сильное впечатление производили на альбоме такие концептуальные композиции, как "Nothing's Free", "You're My Temptation", "Cleansed by Fire".
В 1997 году после очередной трехлетней паузы дискография артиста пополнилась концертником "Fistful of Alice". Этот отличный живой альбом был записан во время шоу в Мехико, о котором Купер отзывался с восторгом - нечасто ему подыгрывали такие специальные гости, как Слэш, Роб Зомби (Rob Zombie; White Zombie), Сэмми Хагар (Sammy Hagar; экс-Van Halen).
Хотя сольное творчество Элиса Купера боссы шоу-бизнеса так и не почтили своими высочайшими премиями и наградами, его дуэт с Робом Зомби "Hands оf Death (Burn Baby Burn)", представленный на альбоме 1996 года "Songs in the Key of X", был номинирован на Grammy.
Людей, начинавших свой путь к славе вместе с Купером, судьба развела в самых неожиданных направлениях. Некоторые вовсе сменили профориентацию. Нил Смит, например, стал агентом по недвижимости. Майкл Брюс все еще пишет песни, но испытывает ностальгию по прошлому, по временам славы Alice Cooper. Глен Бакстон последние годы жизни провел в Айове. Он тяжело болел и скончался в 1997 году. Деннис Данеуэй в конце концов поселился в Коннектикуте, где вместе с женой открыл магазин.
В 2000 году Элис Купер совершил еще один экскурс в кинематограф, исполнив роль ни много ни мало - самого Сатаны. Перевоплотиться в его любимого персонажа предложил артисту режиссер Майк Майерс, снимавший комедию "The Сrossover".
Первый альбом в новом тысячелетии "Brutal Planet" (2000), лучшая подборка нового материала с конца 80-х, был прекрасно встречен публикой. Альбом развивал тот же апокалиптический сюжет, который Купер начал разрабатывать в записи 1994 года "The Last Temptation". Продолжением этой феерической истории стал следующий релиз "Dragontown", изданный через год. Как и над предыдущим альбомом, над диском 2001 года музыкант работал в компании с Бобом Марлеттом (Bob Marlette; Black Sabbath, Wilson Phillips), выступившим в роли продюсера, аранжировщика и соавтора всех песен, и с незаменимым Бобом Эзриным в качестве исполнительного продюсера. В 2001-м Элис Купер отметил 30-летнюю годовщину своей карьеры, что также нашло отражение в новом альбоме: этой теме посвящена композиция "The Little Thing".
В 2002-м музыкант еще раз напомнил о себе весьма экстравагантным поступком - записал свой старый хит "School's Оut" вместе со шведской поп-группой A*Teens и спродюсировал рок- и поп-версию композиции.
Осенью 2003 года музыкант подготовил 25-й студийный альбом в своей дискографии "Eyes of Alice Cooper". Лучшим образцом рока марки Купера стала композиция "Detroit City" с безупречной гитарой Уэйна Крамера (Wayne Kramer; MC5). Все 13 песен написаны Элисом в соавторстве с гитаристами и бэк-вокалистами Райном Рокси (Ryan Roxie) и Эриком Давером (Eric Dover).
Музыкант, который вот уже тридцать лет неизменно становится фаворитом каждого нового поколения рок-фанов, конечно, широко пользуется своими фирменными рецептами, уже много раз себя оправдавшими. Но делает это каждый раз с таким вдохновением и увлеченностью, что трудно не согласиться с его самоуверенной фразой в одном из последних интервью: "Передайте всем, что сегодня Элис чувствует себя энергичным как никогда!"
Трэклист:

(1969) Pretties For You

1. Titanic Overture (1:12)
2. 10 Minutes Before The Worm (1:39)
3. Sing Low, Sweet Cheerio (5:42)
4. Today Mueller (1:48)
5. Living (3:12)
6. Fields Of Regret (5:44)
7. No Longer Umpire (2:02)
8. Levity Ball (Live at the Cheetah) (4:39)
9. B.B. On Mars (1:17)
10. Alice Cooper - Reflected (3:17)
11. Alice Cooper - Apple Bush (3:08)
12. Alice Cooper - Earwigs To Eternity (1:19)
13. Alice Cooper - Changing Arranging (3:03)

EAC Log

EAC extraction logfile from 24. December 2006, 0:01 for CD
Alice Cooper / Pretties For You
Used drive : PIONEER DVD-RW DVR-110D Adapter: 1 ID: 0
Read mode : Secure with NO C2, accurate stream, disable cache
Read offset correction : 48
Overread into Lead-In and Lead-Out : No
Used output format : Internal WAV Routines
44.100 Hz; 16 Bit; Stereo
Other options :
Fill up missing offset samples with silence : Yes
Delete leading and trailing silent blocks : No
Native Win32 interface for Win NT & 2000
Track 1
Filename C:\Temp\Alice Cooper - Pretties For You (1969) [Flac)\01 - Titanic Overture.wav
Pre-gap length 0:00:02.00
Peak level 79.3 %
Track quality 100.0 %
Test CRC BC4CA427
Copy CRC BC4CA427
Copy OK
Track 2
Filename C:\Temp\Alice Cooper - Pretties For You (1969) [Flac)\02 - 10 Minutes Before The Worm.wav
Peak level 95.4 %
Track quality 100.0 %
Test CRC C6EE0AC6
Copy CRC C6EE0AC6
Copy OK
Track 3
Filename C:\Temp\Alice Cooper - Pretties For You (1969) [Flac)\03 - Sing Low, Sweet Cheerio.wav
Pre-gap length 0:00:02.62
Peak level 100.0 %
Track quality 99.9 %
Test CRC 10E01317
Copy CRC 10E01317
Copy OK
Track 4
Filename C:\Temp\Alice Cooper - Pretties For You (1969) [Flac)\04 - Today Mueller.wav
Pre-gap length 0:00:02.86
Peak level 87.4 %
Track quality 100.0 %
Test CRC FB26E1B8
Copy CRC FB26E1B8
Copy OK
Track 5
Filename C:\Temp\Alice Cooper - Pretties For You (1969) [Flac)\05 - Living.wav
Pre-gap length 0:00:01.93
Peak level 100.0 %
Track quality 100.0 %
Test CRC F9BAD06F
Copy CRC F9BAD06F
Copy OK
Track 6
Filename C:\Temp\Alice Cooper - Pretties For You (1969) [Flac)\06 - Fields Of Regret.wav
Pre-gap length 0:00:02.82
Peak level 85.5 %
Track quality 99.9 %
Test CRC 3B003602
Copy CRC 3B003602
Copy OK
Track 7
Filename C:\Temp\Alice Cooper - Pretties For You (1969) [Flac)\07 - No Longer Umpire.wav
Pre-gap length 0:00:02.64
Peak level 100.0 %
Track quality 100.0 %
Test CRC B1391049
Copy CRC B1391049
Copy OK
Track 8
Filename C:\Temp\Alice Cooper - Pretties For You (1969) [Flac)\08 - Levity Ball (Live at the Cheetah).wav
Pre-gap length 0:00:03.42
Peak level 74.9 %
Track quality 100.0 %
Test CRC AC62DFD9
Copy CRC AC62DFD9
Copy OK
Track 9
Filename C:\Temp\Alice Cooper - Pretties For You (1969) [Flac)\09 - B.B. On Mars.wav
Pre-gap length 0:00:03.46
Peak level 75.5 %
Track quality 100.0 %
Test CRC AB6692A0
Copy CRC AB6692A0
Copy OK
Track 10
Filename C:\Temp\Alice Cooper - Pretties For You (1969) [Flac)\10 - Reflected.wav
Pre-gap length 0:00:05.33
Peak level 100.0 %
Track quality 100.0 %
Test CRC BFE468F5
Copy CRC BFE468F5
Copy OK
Track 11
Filename C:\Temp\Alice Cooper - Pretties For You (1969) [Flac)\11 - Apple Bush.wav
Pre-gap length 0:00:03.00
Peak level 96.3 %
Track quality 100.0 %
Test CRC D54B6B5F
Copy CRC D54B6B5F
Copy OK
Track 12
Filename C:\Temp\Alice Cooper - Pretties For You (1969) [Flac)\12 - Earwigs To Eternity.wav
Pre-gap length 0:00:03.00
Peak level 79.4 %
Track quality 99.8 %
Test CRC A978F0C5
Copy CRC A978F0C5
Copy OK
Track 13
Filename C:\Temp\Alice Cooper - Pretties For You (1969) [Flac)\13 - Changing Arranging.wav
Pre-gap length 0:00:02.73
Peak level 91.0 %
Track quality 100.0 %
Test CRC 0F9F3067
Copy CRC 0F9F3067
Copy OK
No errors occured
End of status report

(1970) Easy Action

1. Mr. & Misdemeanor (3:10)
2. Shoe Salesman (2:39)
3. Still No Air (2:34)
4. Below Your Means (6:54)
5. Return Of The Spiders (4:32)
6. Laughing At Me (2:16)
7. Refrigerator Heaven (2:01)
8. Beautiful Flyaway (3:01)
9. Lay Down And Die, Goodbye (7:36)

EAC Log

EAC extraction logfile from 23. December 2006, 20:01 for CD
Alice Cooper / Easy Action
Used drive : PIONEER DVD-RW DVR-110D Adapter: 1 ID: 0
Read mode : Secure with NO C2, accurate stream, disable cache
Read offset correction : 48
Overread into Lead-In and Lead-Out : No
Used output format : Internal WAV Routines
44.100 Hz; 16 Bit; Stereo
Other options :
Fill up missing offset samples with silence : Yes
Delete leading and trailing silent blocks : No
Native Win32 interface for Win NT & 2000
Track 1
Filename C:\Temp\Alice Cooper - Easy Action (1970) [Flac]\01 - Mr. & Misdemeanor.wav
Pre-gap length 0:00:02.49
Peak level 90.5 %
Track quality 100.0 %
Test CRC 3A2CC43E
Copy CRC 3A2CC43E
Copy OK
Track 2
Filename C:\Temp\Alice Cooper - Easy Action (1970) [Flac]\02 - Shoe Salesman.wav
Peak level 86.3 %
Track quality 100.0 %
Test CRC CE3852E6
Copy CRC CE3852E6
Copy OK
Track 3
Filename C:\Temp\Alice Cooper - Easy Action (1970) [Flac]\03 - Still No Air.wav
Pre-gap length 0:00:03.00
Peak level 95.8 %
Track quality 100.0 %
Test CRC 02D583D3
Copy CRC 02D583D3
Copy OK
Track 4
Filename C:\Temp\Alice Cooper - Easy Action (1970) [Flac]\04 - Below Your Means.wav
Pre-gap length 0:00:04.00
Peak level 100.0 %
Track quality 100.0 %
Test CRC 2B070F54
Copy CRC 2B070F54
Copy OK
Track 5
Filename C:\Temp\Alice Cooper - Easy Action (1970) [Flac]\05 - Return Of The Spiders.wav
Pre-gap length 0:00:02.00
Peak level 100.0 %
Track quality 100.0 %
Test CRC 4B76A588
Copy CRC 4B76A588
Copy OK
Track 6
Filename C:\Temp\Alice Cooper - Easy Action (1970) [Flac]\06 - Laughing At Me.wav
Pre-gap length 0:00:01.00
Peak level 89.8 %
Track quality 100.0 %
Test CRC 0177FE2D
Copy CRC 0177FE2D
Copy OK
Track 7
Filename C:\Temp\Alice Cooper - Easy Action (1970) [Flac]\07 - Refrigerator Heaven.wav
Pre-gap length 0:00:02.00
Peak level 85.5 %
Track quality 100.0 %
Test CRC 7EFF96C2
Copy CRC 7EFF96C2
Copy OK
Track 8
Filename C:\Temp\Alice Cooper - Easy Action (1970) [Flac]\08 - Beautiful Flyaway.wav
Pre-gap length 0:00:02.00
Peak level 83.9 %
Track quality 100.0 %
Test CRC C165C973
Copy CRC C165C973
Copy OK
Track 9
Filename C:\Temp\Alice Cooper - Easy Action (1970) [Flac]\09 - Lay Down And Die, Goodbye.wav
Peak level 100.0 %
Track quality 99.9 %
Test CRC E3FC4129
Copy CRC E3FC4129
Copy OK
No errors occured
End of status report

(1971) Killer

1. Under My Wheels (2:51)
2. Be My Lover (3:21)
3. Halo Of Flies (8:22)
4. Desperado (3:30)
5. You Drive Me Nervous (2:28)
6. Yeah, Yeah, Yeah (3:39)
7. Dead Babies (5:44)
8. Killer (6:58)

EAC Log

EAC extraction logfile from 25. December 2006, 5:58 for CD
Alice Cooper / Killer
Used drive : PIONEER DVD-RW DVR-110D Adapter: 1 ID: 0
Read mode : Secure with NO C2, accurate stream, disable cache
Read offset correction : 48
Overread into Lead-In and Lead-Out : No
Used output format : Internal WAV Routines
44.100 Hz; 16 Bit; Stereo
Other options :
Fill up missing offset samples with silence : Yes
Delete leading and trailing silent blocks : No
Native Win32 interface for Win NT & 2000
Track 1
Filename C:\Temp\Alice Cooper - Killer (1971) [Flac]\01 - Under My Wheels.wav
Pre-gap length 0:00:02.44
Peak level 76.4 %
Track quality 100.0 %
Test CRC CC4B2541
Copy CRC CC4B2541
Copy OK
Track 2
Filename C:\Temp\Alice Cooper - Killer (1971) [Flac]\02 - Be My Lover.wav
Pre-gap length 0:00:04.13
Peak level 60.1 %
Track quality 100.0 %
Test CRC 270FB9DC
Copy CRC 270FB9DC
Copy OK
Track 3
Filename C:\Temp\Alice Cooper - Killer (1971) [Flac]\03 - Halo Of Flies.wav
Pre-gap length 0:00:02.73
Peak level 79.1 %
Track quality 100.0 %
Test CRC 2DFDFD8B
Copy CRC 2DFDFD8B
Copy OK
Track 4
Filename C:\Temp\Alice Cooper - Killer (1971) [Flac]\04 - Desperado.wav
Pre-gap length 0:00:04.00
Peak level 60.1 %
Track quality 100.0 %
Test CRC FFD16F4D
Copy CRC FFD16F4D
Copy OK
Track 5
Filename C:\Temp\Alice Cooper - Killer (1971) [Flac]\05 - You Drive Me Nervous.wav
Pre-gap length 0:00:02.76
Peak level 70.5 %
Track quality 100.0 %
Test CRC E47BCD4E
Copy CRC E47BCD4E
Copy OK
Track 6
Filename C:\Temp\Alice Cooper - Killer (1971) [Flac]\06 - Yeah, Yeah, Yeah.wav
Pre-gap length 0:00:03.29
Peak level 52.6 %
Track quality 100.0 %
Test CRC ACF24D79
Copy CRC ACF24D79
Copy OK
Track 7
Filename C:\Temp\Alice Cooper - Killer (1971) [Flac]\07 - Dead Babies.wav
Pre-gap length 0:00:04.93
Peak level 70.6 %
Track quality 100.0 %
Test CRC C1186057
Copy CRC C1186057
Copy OK
Track 8
Filename C:\Temp\Alice Cooper - Killer (1971) [Flac]\08 - Killer.wav
Peak level 59.9 %
Track quality 100.0 %
Test CRC 48E5D372
Copy CRC 48E5D372
Copy OK
No errors occured
End of status report

(1971) Love It To Death

1. Caught In A Dream (3:09)
2. I'm Eighteen (3:00)
3. Long Way To Go (3:04)
4. Black Juju (9:11)
5. Is It My Body (2:39)
6. Hallowed Be My Name (2:29)
7. Second Coming (3:04)
8. Ballad Of Dwight Fry (6:33)
9. Sun Arise (3:50)

EAC Log

EAC extraction logfile from 3. January 2007, 21:10 for CD
Alice Cooper / Love It To Death
Used drive : HL-DT-STDVDRAM GSA-4167B Adapter: 5 ID: 0
Read mode : Secure with NO C2, accurate stream, disable cache
Read offset correction : 667
Overread into Lead-In and Lead-Out : No
Used output format : C:\Program Files\FLAC\flac.exe (User Defined Encoder)
128 kBit/s
Additional command line options : -5 -V -T "ARTIST=%a" -T "TITLE=%t" -T "ALBUM=%g" -T "DATE=%y" -T "TRACKNUMBER=%n" -T "GENRE=%m" -T "COMMENT=EAC Flac 1.1.2 -5" %s
Other options :
Fill up missing offset samples with silence : Yes
Delete leading and trailing silent blocks : No
Native Win32 interface for Win NT & 2000
Track 1
Filename C:\Documents and Settings\Owner\Desktop\bit torrents\Shared\Alice Cooper - Love It To Death (1971) [FLAC]\01 - Caught In A Dream.wav
Pre-gap length 0:00:02.44
Peak level 79.6 %
Track quality 99.9 %
Test CRC BB856F37
Copy CRC BB856F37
Copy OK
Track 2
Filename C:\Documents and Settings\Owner\Desktop\bit torrents\Shared\Alice Cooper - Love It To Death (1971) [FLAC]\02 - I'm Eighteen.wav
Pre-gap length 0:00:05.96
Peak level 74.5 %
Track quality 100.0 %
Test CRC E02B6A88
Copy CRC E02B6A88
Copy OK
Track 3
Filename C:\Documents and Settings\Owner\Desktop\bit torrents\Shared\Alice Cooper - Love It To Death (1971) [FLAC]\03 - Long Way To Go.wav
Pre-gap length 0:00:03.84
Peak level 91.3 %
Track quality 100.0 %
Test CRC 1E57FA3B
Copy CRC 1E57FA3B
Copy OK
Track 4
Filename C:\Documents and Settings\Owner\Desktop\bit torrents\Shared\Alice Cooper - Love It To Death (1971) [FLAC]\04 - Black Juju.wav
Pre-gap length 0:00:01.13
Peak level 96.8 %
Track quality 100.0 %
Test CRC 69C71753
Copy CRC 69C71753
Copy OK
Track 5
Filename C:\Documents and Settings\Owner\Desktop\bit torrents\Shared\Alice Cooper - Love It To Death (1971) [FLAC]\05 - Is It My Body.wav
Pre-gap length 0:00:03.13
Peak level 97.7 %
Track quality 100.0 %
Test CRC C4B8F5A7
Copy CRC C4B8F5A7
Copy OK
Track 6
Filename C:\Documents and Settings\Owner\Desktop\bit torrents\Shared\Alice Cooper - Love It To Death (1971) [FLAC]\06 - Hallowed Be My Name.wav
Pre-gap length 0:00:00.69
Peak level 98.0 %
Track quality 100.0 %
Test CRC F494B8FF
Copy CRC F494B8FF
Copy OK
Track 7
Filename C:\Documents and Settings\Owner\Desktop\bit torrents\Shared\Alice Cooper - Love It To Death (1971) [FLAC]\07 - Second Coming.wav
Pre-gap length 0:00:01.49
Peak level 85.6 %
Track quality 99.9 %
Test CRC 4C2D1AA4
Copy CRC 4C2D1AA4
Copy OK
Track 8
Filename C:\Documents and Settings\Owner\Desktop\bit torrents\Shared\Alice Cooper - Love It To Death (1971) [FLAC]\08 - Ballad Of Dwight Fry.wav
Peak level 95.1 %
Track quality 100.0 %
Test CRC 01B73FD5
Copy CRC 01B73FD5
Copy OK
Track 9
Filename C:\Documents and Settings\Owner\Desktop\bit torrents\Shared\Alice Cooper - Love It To Death (1971) [FLAC]\09 - Sun Arise.wav
Peak level 84.8 %
Track quality 100.0 %
Test CRC B7716E4C
Copy CRC B7716E4C
Copy OK
No errors occured
End of status report

(1972) School's Out

1. School's Out (3:30)
2. Luney Tune (3:43)
3. Gutter Cat vs. The Jets (4:40)
4. Street Fight (0:53)
5. Blue Turk (5:33)
6. My Stars (5:49)
7. Public Animal #9 (3:54)
8. Alma Mater (4:27)
9. Grand Finale (4:25)

EAC Log

EAC extraction logfile from 4. January 2007, 16:57 for CD
Alice Cooper / School's Out
Used drive : HL-DT-STDVDRAM GSA-4167B Adapter: 5 ID: 0
Read mode : Secure with NO C2, accurate stream, disable cache
Read offset correction : 667
Overread into Lead-In and Lead-Out : No
Used output format : C:\Program Files\FLAC\flac.exe (User Defined Encoder)
128 kBit/s
Additional command line options : -5 -V -T "ARTIST=%a" -T "TITLE=%t" -T "ALBUM=%g" -T "DATE=%y" -T "TRACKNUMBER=%n" -T "GENRE=%m" -T "COMMENT=EAC Flac 1.1.2 -5" %s
Other options :
Fill up missing offset samples with silence : Yes
Delete leading and trailing silent blocks : No
Native Win32 interface for Win NT & 2000
Track 1
Filename C:\Documents and Settings\Owner\Desktop\bit torrents\Shared\Alice Cooper - School's Out (1972) [FLAC] CLA\01 - School's Out.wav
Pre-gap length 0:00:02.00
Peak level 99.1 %
Track quality 100.0 %
Test CRC 2593DEFF
Copy CRC 2593DEFF
Copy OK
Track 2
Filename C:\Documents and Settings\Owner\Desktop\bit torrents\Shared\Alice Cooper - School's Out (1972) [FLAC] CLA\02 - Luney Tune.wav
Pre-gap length 0:00:02.90
Peak level 71.8 %
Track quality 100.0 %
Test CRC 25B46546
Copy CRC 25B46546
Copy OK
Track 3
Filename C:\Documents and Settings\Owner\Desktop\bit torrents\Shared\Alice Cooper - School's Out (1972) [FLAC] CLA\03 - Gutter Cat vs. The Jets.wav
Pre-gap length 0:00:04.57
Peak level 87.7 %
Track quality 100.0 %
Test CRC F47FA184
Copy CRC F47FA184
Copy OK
Track 4
Filename C:\Documents and Settings\Owner\Desktop\bit torrents\Shared\Alice Cooper - School's Out (1972) [FLAC] CLA\04 - Street Fight.wav
Peak level 82.2 %
Track quality 99.8 %
Test CRC AB37E7E9
Copy CRC AB37E7E9
Copy OK
Track 5
Filename C:\Documents and Settings\Owner\Desktop\bit torrents\Shared\Alice Cooper - School's Out (1972) [FLAC] CLA\05 - Blue Turk.wav
Peak level 85.6 %
Track quality 99.9 %
Test CRC 94FDABB1
Copy CRC 94FDABB1
Copy OK
Track 6
Filename C:\Documents and Settings\Owner\Desktop\bit torrents\Shared\Alice Cooper - School's Out (1972) [FLAC] CLA\06 - My Stars.wav
Pre-gap length 0:00:03.00
Peak level 76.6 %
Track quality 100.0 %
Test CRC 62DA3244
Copy CRC 62DA3244
Copy OK
Track 7
Filename C:\Documents and Settings\Owner\Desktop\bit torrents\Shared\Alice Cooper - School's Out (1972) [FLAC] CLA\07 - Public Animal #9.wav
Pre-gap length 0:00:03.04
Peak level 85.4 %
Track quality 100.0 %
Test CRC 883655BB
Copy CRC 883655BB
Copy OK
Track 8
Filename C:\Documents and Settings\Owner\Desktop\bit torrents\Shared\Alice Cooper - School's Out (1972) [FLAC] CLA\08 - Alma Mater.wav
Pre-gap length 0:00:04.26
Peak level 89.2 %
Track quality 100.0 %
Test CRC 041D88EF
Copy CRC 041D88EF
Copy OK
Track 9
Filename C:\Documents and Settings\Owner\Desktop\bit torrents\Shared\Alice Cooper - School's Out (1972) [FLAC] CLA\09 - Grand Finale.wav
Peak level 80.8 %
Track quality 100.0 %
Test CRC 9D47D71E
Copy CRC 9D47D71E
Copy OK
No errors occured
End of status report

(1973) Billion Dollar Babies (Deluxe Edition) CD1

1. Hello, Hooray (4:14)
2. Raped And Freezin' (3:19)
3. Elected (4:04)
4. Billion Dollar Babies (3:42)
5. Unfinished Sweet (6:18)
6. No More Mr. Nice Guy (3:06)
7. Generation Landslide (4:30)
8. Sick Things (4:15)
9. Mary Ann (2:22)
10. I Love The Dead (5:07)

EAC Log

EAC extraction logfile from 31. December 2006, 17:27 for CD
Alice Cooper / Billion Dollar Babies : Deluxe Edition - Disc 1 of 2
Used drive : HL-DT-STCD-RW GCE-8481B Adapter: 1 ID: 1
Read mode : Secure with NO C2, accurate stream, disable cache
Read offset correction : 6
Overread into Lead-In and Lead-Out : No
Used output format : C:\Program Files\FLAC\flac.exe (User Defined Encoder)
192 kBit/s
Additional command line options : -6 -V -T "artist=%a" -T "title=%t" -T "album=%g" -T "date=%y" -T "tracknumber=%n" -T "genre=%m" %s
Other options :
Fill up missing offset samples with silence : Yes
Delete leading and trailing silent blocks : No
Native Win32 interface for Win NT & 2000
Track 1
Filename H:\Music\Alice Cooper - Billion Dollar Babies (Deluxe Edition)\Disc1\01 - Hello, Hooray.wav
Pre-gap length 0:00:02.32
Peak level 95.0 %
Track quality 100.0 %
Test CRC 5004A78D
Copy CRC 5004A78D
Copy OK
Track 2
Filename H:\Music\Alice Cooper - Billion Dollar Babies (Deluxe Edition)\Disc1\02 - Raped And Freezin'.wav
Peak level 98.3 %
Track quality 100.0 %
Test CRC 555AC5E9
Copy CRC 555AC5E9
Copy OK
Track 3
Filename H:\Music\Alice Cooper - Billion Dollar Babies (Deluxe Edition)\Disc1\03 - Elected.wav
Pre-gap length 0:00:01.42
Peak level 98.1 %
Track quality 100.0 %
Test CRC C1584014
Copy CRC C1584014
Copy OK
Track 4
Filename H:\Music\Alice Cooper - Billion Dollar Babies (Deluxe Edition)\Disc1\04 - Billion Dollar Babies.wav
Peak level 98.4 %
Track quality 100.0 %
Test CRC 1ECF8CEC
Copy CRC 1ECF8CEC
Copy OK
Track 5
Filename H:\Music\Alice Cooper - Billion Dollar Babies (Deluxe Edition)\Disc1\05 - Unfinished Sweet.wav
Pre-gap length 0:00:03.60
Peak level 98.3 %
Track quality 100.0 %
Test CRC DC1CA3F6
Copy CRC DC1CA3F6
Copy OK
Track 6
Filename H:\Music\Alice Cooper - Billion Dollar Babies (Deluxe Edition)\Disc1\06 - No More Mr. Nice Guy.wav
Peak level 98.2 %
Track quality 100.0 %
Test CRC A885C6D5
Copy CRC A885C6D5
Copy OK
Track 7
Filename H:\Music\Alice Cooper - Billion Dollar Babies (Deluxe Edition)\Disc1\07 - Generation Landslide.wav
Peak level 98.5 %
Track quality 100.0 %
Test CRC 2E099A7C
Copy CRC 2E099A7C
Copy OK
Track 8
Filename H:\Music\Alice Cooper - Billion Dollar Babies (Deluxe Edition)\Disc1\08 - Sick Things.wav
Peak level 98.5 %
Track quality 100.0 %
Test CRC 3D4D2828
Copy CRC 3D4D2828
Copy OK
Track 9
Filename H:\Music\Alice Cooper - Billion Dollar Babies (Deluxe Edition)\Disc1\09 - Mary Ann.wav
Peak level 80.2 %
Track quality 100.0 %
Test CRC 181A2AC1
Copy CRC 181A2AC1
Copy OK
Track 10
Filename H:\Music\Alice Cooper - Billion Dollar Babies (Deluxe Edition)\Disc1\10 - I Love The Dead.wav
Peak level 98.6 %
Track quality 100.0 %
Test CRC 4906B8B4
Copy CRC 4906B8B4
Copy OK
No errors occured
End of status report

(1973) Billion Dollar Babies (Deluxe Edition) CD2

1. Hello, Hooray (Live - 1973) (3:04)
2. Billion Dollar Babies (Live - 1973) (3:47)
3. Elected (Live - 1973) (2:28)
4. I'm Eighteen (Live - 1973) (4:50)
5. Raped & Freezin' (Live - 1973) (3:14)
6. No More Mr Nice Guy (Live - 1973) (3:07)
7. My Stars (Live - 1973) (7:32)
8. Unfinished Sweet (Live - 1973) (6:01)
9. Sick Things (Live - 1973) (3:16)
10. Dead Babies (Live - 1973) (2:58)
11. I Love The Dead (Live - 1973) (4:48)
12. Coal Black Model T (Previously Unissued Outtake) (4:28)
13. Son Of BIllion Dollar Babies (Generation Landslide) - (Previously Unissued Outtake) (3:45)
14. Slick Black Limousine (flexidisc included in New Musical Express Magazine) (4:26)

EAC Log

EAC extraction logfile from 31. December 2006, 18:06 for CD
Alice Cooper / Billion Dollar Babies : Deluxe Edition - Disc 2 of 2
Used drive : HL-DT-STCD-RW GCE-8481B Adapter: 1 ID: 1
Read mode : Secure with NO C2, accurate stream, disable cache
Read offset correction : 6
Overread into Lead-In and Lead-Out : No
Used output format : C:\Program Files\FLAC\flac.exe (User Defined Encoder)
192 kBit/s
Additional command line options : -6 -V -T "artist=%a" -T "title=%t" -T "album=%g" -T "date=%y" -T "tracknumber=%n" -T "genre=%m" %s
Other options :
Fill up missing offset samples with silence : Yes
Delete leading and trailing silent blocks : No
Native Win32 interface for Win NT & 2000
Track 1
Filename H:\Music\Alice Cooper - Billion Dollar Babies (Deluxe Edition)\Disc2\01 - Hello, Hooray (Live - 1973).wav
Pre-gap length 0:00:02.32
Peak level 95.8 %
Track quality 100.0 %
Test CRC 6C0B1467
Copy CRC 6C0B1467
Copy OK
Track 2
Filename H:\Music\Alice Cooper - Billion Dollar Babies (Deluxe Edition)\Disc2\02 - Billion Dollar Babies (Live - 1973).wav
Peak level 95.6 %
Track quality 100.0 %
Test CRC 0D5EB15E
Copy CRC 0D5EB15E
Copy OK
Track 3
Filename H:\Music\Alice Cooper - Billion Dollar Babies (Deluxe Edition)\Disc2\03 - Elected (Live - 1973).wav
Peak level 96.5 %
Track quality 100.0 %
Test CRC 6C0513BF
Copy CRC 6C0513BF
Copy OK
Track 4
Filename H:\Music\Alice Cooper - Billion Dollar Babies (Deluxe Edition)\Disc2\04 - I'm Eighteen (Live - 1973).wav
Peak level 95.7 %
Track quality 99.9 %
Test CRC F531ACEC
Copy CRC F531ACEC
Copy OK
Track 5
Filename H:\Music\Alice Cooper - Billion Dollar Babies (Deluxe Edition)\Disc2\05 - Raped & Freezin' (Live - 1973).wav
Peak level 95.6 %
Track quality 100.0 %
Test CRC 6735EC88
Copy CRC 6735EC88
Copy OK
Track 6
Filename H:\Music\Alice Cooper - Billion Dollar Babies (Deluxe Edition)\Disc2\06 - No More Mr Nice Guy (Live - 1973).wav
Peak level 95.6 %
Track quality 100.0 %
Test CRC 27CA305B
Copy CRC 27CA305B
Copy OK
Track 7
Filename H:\Music\Alice Cooper - Billion Dollar Babies (Deluxe Edition)\Disc2\07 - My Stars (Live - 1973).wav
Peak level 95.8 %
Track quality 100.0 %
Test CRC 83153966
Copy CRC 83153966
Copy OK
Track 8
Filename H:\Music\Alice Cooper - Billion Dollar Babies (Deluxe Edition)\Disc2\08 - Unfinished Sweet (Live - 1973).wav
Peak level 95.6 %
Track quality 100.0 %
Test CRC F325A294
Copy CRC F325A294
Copy OK
Track 9
Filename H:\Music\Alice Cooper - Billion Dollar Babies (Deluxe Edition)\Disc2\09 - Sick Things (Live - 1973).wav
Peak level 95.6 %
Track quality 100.0 %
Test CRC D8D13875
Copy CRC D8D13875
Copy OK
Track 10
Filename H:\Music\Alice Cooper - Billion Dollar Babies (Deluxe Edition)\Disc2\10 - Dead Babies (Live - 1973).wav
Peak level 95.6 %
Track quality 99.9 %
Test CRC 5769E645
Copy CRC 5769E645
Copy OK
Track 11
Filename H:\Music\Alice Cooper - Billion Dollar Babies (Deluxe Edition)\Disc2\11 - I Love The Dead (Live - 1973).wav
Peak level 95.9 %
Track quality 100.0 %
Test CRC E87E03E3
Copy CRC E87E03E3
Copy OK
Track 12
Filename H:\Music\Alice Cooper - Billion Dollar Babies (Deluxe Edition)\Disc2\12 - Coal Black Model T (Previously Unissued Outtake).wav
Pre-gap length 0:00:05.30
Peak level 98.9 %
Track quality 100.0 %
Test CRC AEC6E17A
Copy CRC AEC6E17A
Copy OK
Track 13
Filename H:\Music\Alice Cooper - Billion Dollar Babies (Deluxe Edition)\Disc2\13 - Son Of BIllion Dollar Babies (Generation Landslide) - (Previously Unissued Outtake).wav
Pre-gap length 0:00:01.45
Peak level 98.6 %
Track quality 99.9 %
Test CRC 14E412A0
Copy CRC 14E412A0
Copy OK
Track 14
Filename H:\Music\Alice Cooper - Billion Dollar Babies (Deluxe Edition)\Disc2\14 - Slick Black Limousine (flexidisc included in New Musical Express Magazine).wav
Pre-gap length 0:00:02.10
Peak level 98.6 %
Track quality 99.8 %
Test CRC E5ED2DC7
Copy CRC E5ED2DC7
Copy OK
No errors occured
End of status report

(1973) Muscle Of Love

1. Big Apple Dreamin' (Hippo) (5:09)
2. Never Been Sold Before (4:28)
3. Hard Hearted Alice (4:53)
4. Crazy Little Child (5:01)
5. Working Up A Sweat (3:32)
6. Muscle Of Love (3:45)
7. Man With The Golden Gun (4:12)
8. Teenage Lament '74 (3:53)
9. Woman Machine (4:31)

EAC Log

EAC extraction logfile from 25. December 2006, 23:18 for CD
Alice Cooper / Muscle Of Love
Used drive : PIONEER DVD-RW DVR-110D Adapter: 1 ID: 0
Read mode : Secure with NO C2, accurate stream, disable cache
Read offset correction : 48
Overread into Lead-In and Lead-Out : No
Used output format : Internal WAV Routines
44.100 Hz; 16 Bit; Stereo
Other options :
Fill up missing offset samples with silence : Yes
Delete leading and trailing silent blocks : No
Native Win32 interface for Win NT & 2000
Track 1
Filename C:\Temp\Alice Cooper - Muscle Of Love (1973) [Flac]\01 - Big Apple Dreamin' (Hippo).wav
Pre-gap length 0:00:02.44
Peak level 100.0 %
Track quality 100.0 %
Test CRC 5CA20A40
Copy CRC 5CA20A40
Copy OK
Track 2
Filename C:\Temp\Alice Cooper - Muscle Of Love (1973) [Flac]\02 - Never Been Sold Before.wav
Peak level 89.5 %
Track quality 100.0 %
Test CRC BB86D293
Copy CRC BB86D293
Copy OK
Track 3
Filename C:\Temp\Alice Cooper - Muscle Of Love (1973) [Flac]\03 - Hard Hearted Alice.wav
Peak level 79.2 %
Track quality 100.0 %
Test CRC 0241E375
Copy CRC 0241E375
Copy OK
Track 4
Filename C:\Temp\Alice Cooper - Muscle Of Love (1973) [Flac]\04 - Crazy Little Child.wav
Pre-gap length 0:00:01.26
Peak level 90.5 %
Track quality 100.0 %
Test CRC BE60AD20
Copy CRC BE60AD20
Copy OK
Track 5
Filename C:\Temp\Alice Cooper - Muscle Of Love (1973) [Flac]\05 - Working Up A Sweat.wav
Pre-gap length 0:00:01.10
Peak level 88.6 %
Track quality 100.0 %
Test CRC 9A3A03A7
Copy CRC 9A3A03A7
Copy OK
Track 6
Filename C:\Temp\Alice Cooper - Muscle Of Love (1973) [Flac]\06 - Muscle Of Love.wav
Peak level 95.3 %
Track quality 99.9 %
Test CRC D63B0D1B
Copy CRC D63B0D1B
Copy OK
Track 7
Filename C:\Temp\Alice Cooper - Muscle Of Love (1973) [Flac]\07 - Man With The Golden Gun.wav
Peak level 97.0 %
Track quality 100.0 %
Test CRC 838218DF
Copy CRC 838218DF
Copy OK
Track 8
Filename C:\Temp\Alice Cooper - Muscle Of Love (1973) [Flac]\08 - Teenage Lament '74.wav
Pre-gap length 0:00:00.80
Peak level 78.3 %
Track quality 100.0 %
Test CRC 5BC31FF1
Copy CRC 5BC31FF1
Copy OK
Track 9
Filename C:\Temp\Alice Cooper - Muscle Of Love (1973) [Flac]\09 - Woman Machine.wav
Pre-gap length 0:00:00.77
Peak level 94.2 %
Track quality 100.0 %
Test CRC B2767E84
Copy CRC B2767E84
Copy OK
No errors occured
End of status report

(1975) Welcome To My Nightmare (2002 Expanded & Remastered)

1. Welcome To My Nightmare (5:19)
2. Devil's Food (3:35)
3. The Black Widow (3:37)
4. Some Folks (4:16)
5. Only Women Bleed (5:47)
6. Department Of Youth (3:20)
7. Cold Ethyl (2:54)
8. Years Ago (2:51)
9. Steven (5:48)
10. The Awakening (2:27)
11. Escape (3:17)
12. Devil's Food (Alternate Version)
13. Cold Ethyl (Alternate Version)
14. The Awakening (Alternate Version)

EAC Log

EAC extraction logfile from 2. June 2006, 10:06 for CD
Alice Cooper / Welcome To My Nightmare (Expanded Digital Remaster)
Used drive : TOSHIBA CD/DVDW SD-R5372 Adapter: 3 ID: 0
Read mode : Secure with NO C2, accurate stream, disable cache
Read offset correction : 704
Overread into Lead-In and Lead-Out : No
Used output format : D:\Program Files\FLAC\flac.exe (User Defined Encoder)
320 kBit/s
Additional command line options : -5 -V -T "ARTIST=%a" -T "TITLE=%t" -T "ALBUM=%g" -T "DATE=%y" -T "TRACKNUMBER=%n" -T "GENRE=%m" -T "COMMENT=EAC Flac 1.1.2 -5" %s
Other options :
Fill up missing offset samples with silence : Yes
Delete leading and trailing silent blocks : No
Installed external ASPI interface
Track 1
Filename K:\Alice Cooper\Alice Cooper - Welcome To My Nightmare (1975) [FLAC] {2002 Expanded & Remastered}\01 - Welcome To My Nightmare.wav
Pre-gap length 0:00:02.00
Peak level 97.2 %
Track quality 100.0 %
Test CRC AFF72AF3
Copy CRC AFF72AF3
Copy OK
Track 2
Filename K:\Alice Cooper\Alice Cooper - Welcome To My Nightmare (1975) [FLAC] {2002 Expanded & Remastered}\02 - Devil's Food.wav
Pre-gap length 0:00:01.64
Peak level 97.2 %
Track quality 100.0 %
Test CRC 95B9115D
Copy CRC 95B9115D
Copy OK
Track 3
Filename K:\Alice Cooper\Alice Cooper - Welcome To My Nightmare (1975) [FLAC] {2002 Expanded & Remastered}\03 - The Black Widow.wav
Peak level 97.2 %
Track quality 100.0 %
Test CRC A37F0EEB
Copy CRC A37F0EEB
Copy OK
Track 4
Filename K:\Alice Cooper\Alice Cooper - Welcome To My Nightmare (1975) [FLAC] {2002 Expanded & Remastered}\04 - Some Folks.wav
Peak level 100.0 %
Track quality 99.9 %
Test CRC 4E3D5E14
Copy CRC 4E3D5E14
Copy OK
Track 5
Filename K:\Alice Cooper\Alice Cooper - Welcome To My Nightmare (1975) [FLAC] {2002 Expanded & Remastered}\05 - Only Women Bleed.wav
Peak level 97.2 %
Track quality 100.0 %
Test CRC 5E4A8EDA
Copy CRC 5E4A8EDA
Copy OK
Track 6
Filename K:\Alice Cooper\Alice Cooper - Welcome To My Nightmare (1975) [FLAC] {2002 Expanded & Remastered}\06 - Department Of Youth.wav
Peak level 97.2 %
Track quality 100.0 %
Test CRC AC550E25
Copy CRC AC550E25
Copy OK
Track 7
Filename K:\Alice Cooper\Alice Cooper - Welcome To My Nightmare (1975) [FLAC] {2002 Expanded & Remastered}\07 - Cold Ethyl.wav
Pre-gap length 0:00:01.10
Peak level 97.2 %
Track quality 100.0 %
Test CRC ED43AA55
Copy CRC ED43AA55
Copy OK
Track 8
Filename K:\Alice Cooper\Alice Cooper - Welcome To My Nightmare (1975) [FLAC] {2002 Expanded & Remastered}\08 - Years Ago.wav
Pre-gap length 0:00:01.64
Peak level 97.2 %
Track quality 100.0 %
Test CRC 7BA6EB55
Copy CRC 7BA6EB55
Copy OK
Track 9
Filename K:\Alice Cooper\Alice Cooper - Welcome To My Nightmare (1975) [FLAC] {2002 Expanded & Remastered}\09 - Steven.wav
Peak level 97.2 %
Track quality 100.0 %
Test CRC 0D66B0D1
Copy CRC 0D66B0D1
Copy OK
Track 10
Filename K:\Alice Cooper\Alice Cooper - Welcome To My Nightmare (1975) [FLAC] {2002 Expanded & Remastered}\10 - The Awakening.wav
Peak level 97.2 %
Track quality 100.0 %
Test CRC FC38457D
Copy CRC FC38457D
Copy OK
Track 11
Filename K:\Alice Cooper\Alice Cooper - Welcome To My Nightmare (1975) [FLAC] {2002 Expanded & Remastered}\11 - Escape.wav
Pre-gap length 0:00:01.97
Peak level 97.2 %
Track quality 100.0 %
Test CRC 72FA4870
Copy CRC 72FA4870
Copy OK
Track 12
Filename K:\Alice Cooper\Alice Cooper - Welcome To My Nightmare (1975) [FLAC] {2002 Expanded & Remastered}\12 - Devil's Food (Alternate Version).wav
Pre-gap length 0:00:09.97
Peak level 97.2 %
Track quality 100.0 %
Test CRC 7F0CFDD3
Copy CRC 7F0CFDD3
Copy OK
Track 13
Filename K:\Alice Cooper\Alice Cooper - Welcome To My Nightmare (1975) [FLAC] {2002 Expanded & Remastered}\13 - Cold Ethyl (Alternate Version).wav
Pre-gap length 0:00:02.40
Peak level 97.2 %
Track quality 100.0 %
Test CRC 721B8B3A
Copy CRC 721B8B3A
Copy OK
Track 14
Filename K:\Alice Cooper\Alice Cooper - Welcome To My Nightmare (1975) [FLAC] {2002 Expanded & Remastered}\14 - The Awakening (Alternate Version).wav
Pre-gap length 0:00:01.57
Peak level 97.2 %
Track quality 100.0 %
Test CRC 2BF99A14
Copy CRC 2BF99A14
Copy OK
No errors occured
End of status report

(1976) Goes to Hell

1. Go To Hell (5:14)
2. You Gotta Dance (2:45)
3. I'm The Coolest (3:57)
4. Didn't We Meet (4:15)
5. I Never Cry (3:43)
6. Give The Kid A Break (4:15)
7. Guilty (3:19)
8. Wake Me Gently (5:03)
9. Wish You Were Here (4:36)
10. I'm Always Chasing Rainbows (2:09)
11. Going Home (3:47)

EAC Log

EAC extraction logfile from 5. January 2007, 7:00 for CD
Alice Cooper / Alice Cooper Goes To Hell
Used drive : HL-DT-STDVDRAM GSA-4167B Adapter: 5 ID: 0
Read mode : Secure with NO C2, accurate stream, disable cache
Read offset correction : 667
Overread into Lead-In and Lead-Out : No
Used output format : C:\Program Files\FLAC\flac.exe (User Defined Encoder)
128 kBit/s
Additional command line options : -5 -V -T "ARTIST=%a" -T "TITLE=%t" -T "ALBUM=%g" -T
"DATE=%y" -T "TRACKNUMBER=%n" -T "GENRE=%m" -T "COMMENT=EAC Flac 1.1.2 -5" %s
Other options :
Fill up missing offset samples with silence : Yes
Delete leading and trailing silent blocks : No
Native Win32 interface for Win NT & 2000
Track 1
Filename C:\Documents and Settings\Owner\Desktop\bit torrents\Shared\Alice Cooper - Goes To Hell (1976)
[FLAC] CLA\01 - Go To Hell.wav
Pre-gap length 0:00:02.44
Peak level 100.0 %
Track quality 100.0 %
Test CRC 549EF23D
Copy CRC 549EF23D
Copy OK
Track 2
Filename C:\Documents and Settings\Owner\Desktop\bit torrents\Shared\Alice Cooper - Goes To Hell (1976)
[FLAC] CLA\02 - You Gotta Dance.wav
Pre-gap length 0:00:02.26
Peak level 100.0 %
Track quality 100.0 %
Test CRC 32D03548
Copy CRC 32D03548
Copy OK
Track 3
Filename C:\Documents and Settings\Owner\Desktop\bit torrents\Shared\Alice Cooper - Goes To Hell (1976)
[FLAC] CLA\03 - I'm The Coolest.wav
Peak level 100.0 %
Track quality 100.0 %
Test CRC 37A221BD
Copy CRC 37A221BD
Copy OK
Track 4
Filename C:\Documents and Settings\Owner\Desktop\bit torrents\Shared\Alice Cooper - Goes To Hell (1976)
[FLAC] CLA\04 - Didn't We Meet.wav
Pre-gap length 0:00:00.84
Peak level 99.1 %
Track quality 100.0 %
Test CRC 97F92F10
Copy CRC 97F92F10
Copy OK
Track 5
Filename C:\Documents and Settings\Owner\Desktop\bit torrents\Shared\Alice Cooper - Goes To Hell (1976)
[FLAC] CLA\05 - I Never Cry.wav
Pre-gap length 0:00:00.89
Peak level 83.6 %
Track quality 100.0 %
Test CRC FFFF193A
Copy CRC FFFF193A
Copy OK
Track 6
Filename C:\Documents and Settings\Owner\Desktop\bit torrents\Shared\Alice Cooper - Goes To Hell (1976)
[FLAC] CLA\06 - Give The Kid A Break.wav
Pre-gap length 0:00:02.16
Peak level 88.0 %
Track quality 100.0 %
Test CRC 9A27FD3F
Copy CRC 9A27FD3F
Copy OK
Track 7
Filename C:\Documents and Settings\Owner\Desktop\bit torrents\Shared\Alice Cooper - Goes To Hell (1976)
[FLAC] CLA\07 - Guilty.wav
Peak level 90.9 %
Track quality 100.0 %
Test CRC 404CA526
Copy CRC 404CA526
Copy OK
Track 8
Filename C:\Documents and Settings\Owner\Desktop\bit torrents\Shared\Alice Cooper - Goes To Hell (1976)
[FLAC] CLA\08 - Wake Me Gently.wav
Pre-gap length 0:00:03.33
Peak level 93.5 %
Track quality 100.0 %
Test CRC 7C15504E
Copy CRC 7C15504E
Copy OK
Track 9
Filename C:\Documents and Settings\Owner\Desktop\bit torrents\Shared\Alice Cooper - Goes To Hell (1976)
[FLAC] CLA\09 - Wish You Were Here.wav
Pre-gap length 0:00:01.06
Peak level 98.5 %
Track quality 100.0 %
Test CRC BBB27E09
Copy CRC BBB27E09
Copy OK
Track 10
Filename C:\Documents and Settings\Owner\Desktop\bit torrents\Shared\Alice Cooper - Goes To Hell (1976)
[FLAC] CLA\10 - I'm Always Chasing Rainbows.wav
Pre-gap length 0:00:00.33
Peak level 96.1 %
Track quality 100.0 %
Test CRC 6ED290E5
Copy CRC 6ED290E5
Copy OK
Track 11
Filename C:\Documents and Settings\Owner\Desktop\bit torrents\Shared\Alice Cooper - Goes To Hell (1976)
[FLAC] CLA\11 - Going Home.wav
Peak level 99.9 %
Track quality 100.0 %
Test CRC 79840144
Copy CRC 79840144
Copy OK
No errors occured
End of status report

(1977) Lace and Whiskey

1. It's Hot Tonight (3:21)
2. Lace And Whiskey (3:13)
3. Road Rats (4:51)
4. Damned If You Do (3:13)
5. You And Me (5:07)
6. King Of The Silver Screen (5:35)
7. Ubangi Stomp (2:12)
8. (No More) Love At Your Convenience (3:49)
9. I Never Wrote Those Songs (4:34)
10. My God (5:40)

EAC Log

EAC extraction logfile from 26. December 2006, 18:12 for CD
Alice Cooper / Lace and Whiskey
Used drive : LITE-ON LTR-52246S Adapter: 1 ID: 0
Read mode : Secure with NO C2, accurate stream, disable cache
Read offset correction : 6
Overread into Lead-In and Lead-Out : No
Used output format : Internal WAV Routines
44.100 Hz; 16 Bit; Stereo
Other options :
Fill up missing offset samples with silence : Yes
Delete leading and trailing silent blocks : No
Installed external ASPI interface
Track 1
Filename I:\Alice Cooper\Lace and Whiskey\01 - It's Hot Tonight.wav
Pre-gap length 0:00:02.32
Peak level 93.4 %
Track quality 100.0 %
Test CRC FC2A200F
Copy CRC FC2A200F
Copy OK
Track 2
Filename I:\Alice Cooper\Lace and Whiskey\02 - Lace and Whiskey.wav
Pre-gap length 0:00:00.55
Peak level 82.5 %
Track quality 100.0 %
Test CRC E2C0F5C2
Copy CRC E2C0F5C2
Copy OK
Track 3
Filename I:\Alice Cooper\Lace and Whiskey\03 - Road Rats.wav
Pre-gap length 0:00:00.02
Peak level 90.7 %
Track quality 100.0 %
Test CRC 101624DE
Copy CRC 101624DE
Copy OK
Track 4
Filename I:\Alice Cooper\Lace and Whiskey\04 - Damned If You Do.wav
Peak level 92.2 %
Track quality 100.0 %
Test CRC E7959F3F
Copy CRC E7959F3F
Copy OK
Track 5
Filename I:\Alice Cooper\Lace and Whiskey\05 - You and Me.wav
Pre-gap length 0:00:01.67
Peak level 91.2 %
Track quality 100.0 %
Test CRC 2C3AD2F7
Copy CRC 2C3AD2F7
Copy OK
Track 6
Filename I:\Alice Cooper\Lace and Whiskey\06 - King of the Silver Screen.wav
Pre-gap length 0:00:01.07
Peak level 100.0 %
Track quality 99.9 %
Test CRC CCD76C28
Copy CRC CCD76C28
Copy OK
Track 7
Filename I:\Alice Cooper\Lace and Whiskey\07 - Ubangi Stomp.wav
Pre-gap length 0:00:00.65
Peak level 78.3 %
Track quality 100.0 %
Test CRC DB9BF3AC
Copy CRC DB9BF3AC
Copy OK
Track 8
Filename I:\Alice Cooper\Lace and Whiskey\08 - (No More) Love at Your Convenience.wav
Pre-gap length 0:00:00.20
Peak level 81.9 %
Track quality 100.0 %
Test CRC D3DECF42
Copy CRC D3DECF42
Copy OK
Track 9
Filename I:\Alice Cooper\Lace and Whiskey\09 - I Never Wrote Those Songs.wav
Pre-gap length 0:00:01.10
Peak level 86.3 %
Track quality 100.0 %
Test CRC F3B6BECB
Copy CRC F3B6BECB
Copy OK
Track 10
Filename I:\Alice Cooper\Lace and Whiskey\10 - My God.wav
Pre-gap length 0:00:00.70
Peak level 92.4 %
Track quality 100.0 %
Test CRC BFF5D8A4
Copy CRC BFF5D8A4
Copy OK
No errors occured
End of status report

(1978) From The Inside

1. From The Inside (3:55)
2. Wish I Were Born In Beverly Hills (3:33)
3. The Quiet Room (3:53)
4. Nurse Rozetta (4:16)
5. Millie And Billie (4:13)
6. Serious (2:43)
7. How You Gonna See Me Now (3:56)
8. For Veronica's Sake (3:36)
9. Jackknife Johnny (3:43)
10. Inmates (We're All Crazy) (5:03)

EAC Log

EAC extraction logfile from 14. February 2007, 19:21 for CD
Alice Cooper / From The Inside
Used drive : PLEXTOR DVDR PX-760A Adapter: 2 ID: 1
Read mode : Secure with NO C2, accurate stream, disable cache
Read offset correction : 30
Overread into Lead-In and Lead-Out : No
Used output format : C:\Program Files\Exact Audio Copy\FLAC.exe (User Defined Encoder)
32 kBit/s
Additional command line options : -5 -V -T "ARTIST=%a" -T "TITLE=%t" -T "ALBUM=%g" -T "DATE=%y" -T "TRACKNUMBER=%n" -T "GENRE=%m"

[Цитировать]



Показать сообщения:    

Текущее время: 20-Янв 04:45

Часовой пояс: UTC + 3


Вы не можете начинать темы
Вы не можете отвечать на сообщения
Вы не можете редактировать свои сообщения
Вы не можете удалять свои сообщения
Вы не можете голосовать в опросах
Вы не можете прикреплять файлы к сообщениям
Вы не можете скачивать файлы

!ВНИМАНИЕ!
Сайт не предоставляет электронные версии произведений, а занимается лишь коллекционированием и каталогизацией ссылок, присылаемых и публикуемых на форуме нашими читателями. Если вы являетесь правообладателем какого-либо представленного материала и не желаете, чтобы ссылка на него находилась в нашем каталоге, свяжитесь с нами, и мы незамедлительно удалим ее. Файлы для обмена на трекере предоставлены пользователями сайта, и администрация не несет ответственности за их содержание. Просьба не заливать файлы, защищенные авторскими правами, а также файлы нелегального содержания!