[ Сегодня идет свободное скачивание без начисления Download ]


Статистика раздачи
Нет
 
   
 
Top  
 
 
The Beatles - 09.09.09. Mono Box set (Original Recording Remastered) Japan, TOCP-71041-53 Жанр: Rock
Год выпуска диска: 2009
Производитель диска: Japan
Аудио кодек: FLAC
Тип рипа: image+.cue
Битрейт аудио: lossless
Трэклист:

Треклист

01. I Saw Her Standing There
02. Misery
03. Anna (Go to Him)
04. Chains
05. Boys
06. Ask Me Why
07. Please Please Me
08. Love Me Do
09. P.S. I Love You
10. Baby It's You
11. Do You Want to Know a Secret
12. A Taste of Honey
13. There's a Place
14. Twist and Shout

лог ЕАС

Exact Audio Copy V0.99 prebeta 5 from 4. May 2009
Отчёт EAC об извлечении, выполненном 16. октября 2009, 20:21
The Beatles / Please Please Me [Mono]
Дисковод: MATSHITADVD-RAM UJ-850S Adapter: 1 ID: 0
Режим чтения : ДостоверностьИспользование точного потока : ДаОтключение кэша аудио : ДаИспользование указателей C2 : Нет
Коррекция смещения при чтении : 102Способность читать области Lead-in и Lead-out : НетЗаполнение пропущенных сэмплов тишиной : ДаУдаление блоков с тишиной в начале и конце : НетПри вычислениях CRC использовались нулевые сэмплы : ДаИнтерфейс : Встроенный Win32-интерфейс для Win NT/2000
Выходной формат : Пользовательский кодировщикВыбранный битрейт : 1024 kBit/sКачество : ВысокийДобавление ID3-тэга : НетУтилита сжатия : C:\Program Files\Exact Audio Copy\Flac\flac.exeДополнительные параметры : -8 -V -T "ARTIST=%a" -T "TITLE=%t" -T "ALBUM=%g" -T "DATE=%y" -T "TRACKNUMBER=%n" -T "TOTALTRACKS=%x" -T "GENRE=%m" -T "ALBUM ARTIST=%v" -T "ALBUMARTIST=%v" -T "COMMENT=EAC V0.99 prebeta 5, Secure Mode, AccurateRip, FLAC -8" %s
TOC извлечённого CD
Трек | Старт | Длительность | Начальный сектор | Конечный сектор --------------------------------------------------------------------- 1 | 0:00.00 | 2:58.01 | 0 | 13350 2 | 2:58.01 | 1:52.54 | 13351 | 21804 3 | 4:50.55 | 3:00.34 | 21805 | 35338 4 | 7:51.14 | 2:28.55 | 35339 | 46493 5 | 10:19.69 | 2:29.30 | 46494 | 57698 6 | 12:49.24 | 2:29.56 | 57699 | 68929 7 | 15:19.05 | 2:05.54 | 68930 | 78358 8 | 17:24.59 | 2:24.37 | 78359 | 89195 9 | 19:49.21 | 2:07.62 | 89196 | 98782 10 | 21:57.08 | 2:42.29 | 98783 | 110961 11 | 24:39.37 | 2:01.17 | 110962 | 120053 12 | 26:40.54 | 2:06.27 | 120054 | 129530 13 | 28:47.06 | 1:54.03 | 129531 | 138083 14 | 30:41.09 | 2:36.04 | 138084 | 149787
Характеристики диапазона извлечения и сообщения об ошибках
Выбранный диапазон
Имя файла H:\MP3\The Beatles Mono Box\Please Please Me\The Beatles - Please Please Me [Mono].wav
Пиковый уровень 98.9 % Качество диапазона 100.0 % CRC теста 034ECE7D CRC копии 034ECE7D Копирование... OK
Ошибок не произошло
AccurateRip: сводка
Трек 1 нет в базе данныхТрек 2 нет в базе данныхТрек 3 нет в базе данныхТрек 4 нет в базе данныхТрек 5 нет в базе данныхТрек 6 нет в базе данныхТрек 7 нет в базе данныхТрек 8 нет в базе данныхТрек 9 нет в базе данныхТрек 10 нет в базе данныхТрек 11 нет в базе данныхТрек 12 нет в базе данныхТрек 13 нет в базе данныхТрек 14 нет в базе данных
Ни одного трека нет в базе AccurateRip
Конец отчёта
01. It Won't Be Long
02. All I've Got To Do
03. All My Loving
04. Don't Bother Me
05. Little Child
06. Till There Was You
07. Please Mister Postman
08. Roll Over Beethoven
09. Hold Me Tight
10. You Really Got A Hold On Me
11. I Wanna Be Your Man
12. Devil In Her Heart
13. Not A Second Time
14. Money (That's What I Want)

лог ЕАС

Exact Audio Copy V0.99 prebeta 5 from 4. May 2009
Отчёт EAC об извлечении, выполненном 16. октября 2009, 21:36
The Beatles / With The Beatles [2009 Mono Remaster]
Дисковод: MATSHITADVD-RAM UJ-850S Adapter: 1 ID: 0
Режим чтения : ДостоверностьИспользование точного потока : ДаОтключение кэша аудио : ДаИспользование указателей C2 : Нет
Коррекция смещения при чтении : 102Способность читать области Lead-in и Lead-out : НетЗаполнение пропущенных сэмплов тишиной : ДаУдаление блоков с тишиной в начале и конце : НетПри вычислениях CRC использовались нулевые сэмплы : ДаИнтерфейс : Встроенный Win32-интерфейс для Win NT/2000
Выходной формат : Пользовательский кодировщикВыбранный битрейт : 1024 kBit/sКачество : ВысокийДобавление ID3-тэга : НетУтилита сжатия : C:\Program Files\Exact Audio Copy\Flac\flac.exeДополнительные параметры : -8 -V -T "ARTIST=%a" -T "TITLE=%t" -T "ALBUM=%g" -T "DATE=%y" -T "TRACKNUMBER=%n" -T "TOTALTRACKS=%x" -T "GENRE=%m" -T "ALBUM ARTIST=%v" -T "ALBUMARTIST=%v" -T "COMMENT=EAC V0.99 prebeta 5, Secure Mode, AccurateRip, FLAC -8" %s
TOC извлечённого CD
Трек | Старт | Длительность | Начальный сектор | Конечный сектор --------------------------------------------------------------------- 1 | 0:00.00 | 2:15.68 | 0 | 10192 2 | 2:15.68 | 2:06.04 | 10193 | 19646 3 | 4:21.72 | 2:12.41 | 19647 | 29587 4 | 6:34.38 | 2:31.26 | 29588 | 40938 5 | 9:05.64 | 1:49.46 | 40939 | 49159 6 | 10:55.35 | 2:18.72 | 49160 | 59581 7 | 13:14.32 | 2:38.56 | 59582 | 71487 8 | 15:53.13 | 2:49.09 | 71488 | 84171 9 | 18:42.22 | 2:34.42 | 84172 | 95763 10 | 21:16.64 | 3:04.30 | 95764 | 109593 11 | 24:21.19 | 2:00.40 | 109594 | 118633 12 | 26:21.59 | 2:29.71 | 118634 | 129879 13 | 28:51.55 | 2:12.27 | 129880 | 139806 14 | 31:04.07 | 2:48.73 | 139807 | 152479
Характеристики диапазона извлечения и сообщения об ошибках
Выбранный диапазон
Имя файла H:\MP3\The Beatles Mono Box\With The Beatles\The Beatles - With The Beatles [2009 Mono Remaster].wav
Пиковый уровень 98.8 % Качество диапазона 100.0 % CRC теста 2B5E07DD CRC копии 2B5E07DD Копирование... OK
Ошибок не произошло
AccurateRip: сводка
Трек 1 нет в базе данныхТрек 2 нет в базе данныхТрек 3 нет в базе данныхТрек 4 нет в базе данныхТрек 5 нет в базе данныхТрек 6 нет в базе данныхТрек 7 нет в базе данныхТрек 8 нет в базе данныхТрек 9 нет в базе данныхТрек 10 нет в базе данныхТрек 11 нет в базе данныхТрек 12 нет в базе данныхТрек 13 нет в базе данныхТрек 14 нет в базе данных
Ни одного трека нет в базе AccurateRip
Конец отчёта
01. A Hard Day's Night
02. I Should Have Known Better
03. If I Fell
04. I'm Happy Just To Dance With You
05. And I Love Her
06. Tell Me Why
07. Can't Buy Me Love
08. Any Time At All
09. I'll Cry Instead
10. Things We Said Today
11. When I Get Home
12. You Can't Do That
13. I'll Be Back

лог ЕАС

Exact Audio Copy V0.99 prebeta 5 from 4. May 2009
Отчёт EAC об извлечении, выполненном 17. октября 2009, 9:33
The Beatles / A Hard Day's Night (MONO)
Дисковод: MATSHITADVD-RAM UJ-850S Adapter: 1 ID: 0
Режим чтения : ДостоверностьИспользование точного потока : ДаОтключение кэша аудио : ДаИспользование указателей C2 : Нет
Коррекция смещения при чтении : 102Способность читать области Lead-in и Lead-out : НетЗаполнение пропущенных сэмплов тишиной : ДаУдаление блоков с тишиной в начале и конце : НетПри вычислениях CRC использовались нулевые сэмплы : ДаИнтерфейс : Встроенный Win32-интерфейс для Win NT/2000
Выходной формат : Пользовательский кодировщикВыбранный битрейт : 1024 kBit/sКачество : ВысокийДобавление ID3-тэга : НетУтилита сжатия : C:\Program Files\Exact Audio Copy\Flac\flac.exeДополнительные параметры : -8 -V -T "ARTIST=%a" -T "TITLE=%t" -T "ALBUM=%g" -T "DATE=%y" -T "TRACKNUMBER=%n" -T "TOTALTRACKS=%x" -T "GENRE=%m" -T "ALBUM ARTIST=%v" -T "ALBUMARTIST=%v" -T "COMMENT=EAC V0.99 prebeta 5, Secure Mode, AccurateRip, FLAC -8" %s
TOC извлечённого CD
Трек | Старт | Длительность | Начальный сектор | Конечный сектор --------------------------------------------------------------------- 1 | 0:00.00 | 2:35.16 | 0 | 11640 2 | 2:35.16 | 2:46.62 | 11641 | 24152 3 | 5:22.03 | 2:24.16 | 24153 | 34968 4 | 7:46.19 | 2:00.28 | 34969 | 43996 5 | 9:46.47 | 2:33.57 | 43997 | 55528 6 | 12:20.29 | 2:12.49 | 55529 | 65477 7 | 14:33.03 | 2:17.09 | 65478 | 75761 8 | 16:50.12 | 2:15.39 | 75762 | 85925 9 | 19:05.51 | 1:50.11 | 85926 | 94186 10 | 20:55.62 | 2:40.58 | 94187 | 106244 11 | 23:36.45 | 2:21.03 | 106245 | 116822 12 | 25:57.48 | 2:38.52 | 116823 | 128724 13 | 28:36.25 | 2:22.64 | 128725 | 139438
Характеристики диапазона извлечения и сообщения об ошибках
Выбранный диапазон
Имя файла H:\MP3\The Beatles Mono Box\A Hard Day's Night\The Beatles - A Hard Day's Night (MONO).wav
Пиковый уровень 98.8 % Качество диапазона 100.0 % CRC теста F4A86A66 CRC копии F4A86A66 Копирование... OK
Ошибок не произошло
AccurateRip: сводка
Трек 1 нет в базе данныхТрек 2 нет в базе данныхТрек 3 нет в базе данныхТрек 4 нет в базе данныхТрек 5 нет в базе данныхТрек 6 нет в базе данныхТрек 7 нет в базе данныхТрек 8 нет в базе данныхТрек 9 нет в базе данныхТрек 10 нет в базе данныхТрек 11 нет в базе данныхТрек 12 нет в базе данныхТрек 13 нет в базе данных
Ни одного трека нет в базе AccurateRip
Конец отчёта
01. No Reply
02. I'm A Loser
03. Baby's In Black
04. Rock And Roll Music
05. I'll Follow The Sun
06. Mr. Moonlight
07. Kansas City/Hey-Hey-Hey-Hey!
08. Eight Days A Week
09. Words Of Love
10. Honey Don't
11. Every Little Thing
12. I Don't Want To Spoil The Party
13. What You're Doing
14. Everybody's Trying To Be My Baby

лог ЕАС

Exact Audio Copy V0.99 prebeta 5 from 4. May 2009
Отчёт EAC об извлечении, выполненном 17. октября 2009, 13:40
The Beatles / Beatles For Sale (MONO)
Дисковод: MATSHITADVD-RAM UJ-850S Adapter: 1 ID: 0
Режим чтения : ДостоверностьИспользование точного потока : ДаОтключение кэша аудио : ДаИспользование указателей C2 : Нет
Коррекция смещения при чтении : 102Способность читать области Lead-in и Lead-out : НетЗаполнение пропущенных сэмплов тишиной : ДаУдаление блоков с тишиной в начале и конце : НетПри вычислениях CRC использовались нулевые сэмплы : ДаИнтерфейс : Встроенный Win32-интерфейс для Win NT/2000
Выходной формат : Пользовательский кодировщикВыбранный битрейт : 1024 kBit/sКачество : ВысокийДобавление ID3-тэга : НетУтилита сжатия : C:\Program Files\Exact Audio Copy\Flac\flac.exeДополнительные параметры : -8 -V -T "ARTIST=%a" -T "TITLE=%t" -T "ALBUM=%g" -T "DATE=%y" -T "TRACKNUMBER=%n" -T "TOTALTRACKS=%x" -T "GENRE=%m" -T "ALBUM ARTIST=%v" -T "ALBUMARTIST=%v" -T "COMMENT=EAC V0.99 prebeta 5, Secure Mode, AccurateRip, FLAC -8" %s
TOC извлечённого CD
Трек | Старт | Длительность | Начальный сектор | Конечный сектор --------------------------------------------------------------------- 1 | 0:00.00 | 2:20.42 | 0 | 10541 2 | 2:20.42 | 2:37.53 | 10542 | 22369 3 | 4:58.20 | 2:11.66 | 22370 | 32260 4 | 7:10.11 | 2:37.39 | 32261 | 44074 5 | 9:47.50 | 1:54.72 | 44075 | 52696 6 | 11:42.47 | 2:41.22 | 52697 | 64793 7 | 14:23.69 | 2:38.26 | 64794 | 76669 8 | 17:02.20 | 2:50.07 | 76670 | 89426 9 | 19:52.27 | 2:18.70 | 89427 | 99846 10 | 22:11.22 | 3:03.41 | 99847 | 113612 11 | 25:14.63 | 2:08.29 | 113613 | 123241 12 | 27:23.17 | 2:39.52 | 123242 | 135218 13 | 30:02.69 | 2:38.25 | 135219 | 147093 14 | 32:41.19 | 2:26.41 | 147094 | 158084
Характеристики диапазона извлечения и сообщения об ошибках
Выбранный диапазон
Имя файла H:\MP3\The Beatles Mono Box\Beatles For Sale\The Beatles - Beatles For Sale (MONO).wav
Пиковый уровень 98.7 % Качество диапазона 100.0 % CRC теста 890F460E CRC копии 890F460E Копирование... OK
Ошибок не произошло
AccurateRip: сводка
Трек 1 нет в базе данныхТрек 2 нет в базе данныхТрек 3 нет в базе данныхТрек 4 нет в базе данныхТрек 5 нет в базе данныхТрек 6 нет в базе данныхТрек 7 нет в базе данныхТрек 8 нет в базе данныхТрек 9 нет в базе данныхТрек 10 нет в базе данныхТрек 11 нет в базе данныхТрек 12 нет в базе данныхТрек 13 нет в базе данныхТрек 14 нет в базе данных
Ни одного трека нет в базе AccurateRip
Конец отчёта

01. Help!
02. The Night Before
03. You've Got To Hide Your Love Away
04. I Need You
05. Another Girl
06. You're Going To Lose That Girl
07. Ticket To Ride
08. Act Naturally
09. It's Only Love
10. You Like Me Too Much
11. Tell Me What You See
12. I've Just Seen A Face
13. Yesterday
14. Dizzy Miss Lizzy
15. Help! (1965 Stereo Mix)
16. The Night Before (1965 Stereo Mix)
17. You've Got To Hide Your Love Away (1965 Stereo Mix)
18. I Need You (1965 Stereo Mix)
19. Another Girl (1965 Stereo Mix)
20. You're Going To Lose That Girl (1965 Stereo Mix)
21. Ticket To Ride (1965 Stereo Mix)
22. Act Naturally (1965 Stereo Mix)
23. It's Only Love (1965 Stereo Mix)
24. You Like Me Too Much (1965 Stereo Mix)
25. Tell Me What You See (1965 Stereo Mix)
26. I've Just Seen A Face (1965 Stereo Mix)
27. Yesterday (1965 Stereo Mix)
28. Dizzy Miss Lizzy (1965 Stereo Mix)

лог ЕАС

Exact Audio Copy V0.99 prebeta 5 from 4. May 2009
Отчёт EAC об извлечении, выполненном 17. октября 2009, 8:23
The Beatles / Help! (MONO)
Дисковод: MATSHITADVD-RAM UJ-850S Adapter: 1 ID: 0
Режим чтения : ДостоверностьИспользование точного потока : ДаОтключение кэша аудио : ДаИспользование указателей C2 : Нет
Коррекция смещения при чтении : 102Способность читать области Lead-in и Lead-out : НетЗаполнение пропущенных сэмплов тишиной : ДаУдаление блоков с тишиной в начале и конце : НетПри вычислениях CRC использовались нулевые сэмплы : ДаИнтерфейс : Встроенный Win32-интерфейс для Win NT/2000
Выходной формат : Пользовательский кодировщикВыбранный битрейт : 1024 kBit/sКачество : ВысокийДобавление ID3-тэга : НетУтилита сжатия : C:\Program Files\Exact Audio Copy\Flac\flac.exeДополнительные параметры : -8 -V -T "ARTIST=%a" -T "TITLE=%t" -T "ALBUM=%g" -T "DATE=%y" -T "TRACKNUMBER=%n" -T "TOTALTRACKS=%x" -T "GENRE=%m" -T "ALBUM ARTIST=%v" -T "ALBUMARTIST=%v" -T "COMMENT=EAC V0.99 prebeta 5, Secure Mode, AccurateRip, FLAC -8" %s
TOC извлечённого CD
Трек | Старт | Длительность | Начальный сектор | Конечный сектор --------------------------------------------------------------------- 1 | 0:00.00 | 2:23.29 | 0 | 10753 2 | 2:23.29 | 2:36.55 | 10754 | 22508 3 | 5:00.09 | 2:11.64 | 22509 | 32397 4 | 7:11.73 | 2:32.58 | 32398 | 43855 5 | 9:44.56 | 2:08.38 | 43856 | 53493 6 | 11:53.19 | 2:22.25 | 53494 | 64168 7 | 14:15.44 | 3:08.19 | 64169 | 78287 8 | 17:23.63 | 2:33.47 | 78288 | 89809 9 | 19:57.35 | 1:59.70 | 89810 | 98804 10 | 21:57.30 | 2:39.41 | 98805 | 110770 11 | 24:36.71 | 2:40.24 | 110771 | 122794 12 | 27:17.20 | 2:08.65 | 122795 | 132459 13 | 29:26.10 | 2:09.33 | 132460 | 142167 14 | 31:35.43 | 3:02.40 | 142168 | 155857 15 | 34:38.08 | 2:23.23 | 155858 | 166605 16 | 37:01.31 | 2:37.45 | 166606 | 178425 17 | 39:39.01 | 2:12.04 | 178426 | 188329 18 | 41:51.05 | 2:32.24 | 188330 | 199753 19 | 44:23.29 | 2:09.29 | 199754 | 209457 20 | 46:32.58 | 2:21.36 | 209458 | 220068 21 | 48:54.19 | 3:11.74 | 220069 | 234467 22 | 52:06.18 | 2:33.36 | 234468 | 245978 23 | 54:39.54 | 1:59.42 | 245979 | 254945 24 | 56:39.21 | 2:39.69 | 254946 | 266939 25 | 59:19.15 | 2:40.57 | 266940 | 278996 26 | 61:59.72 | 2:08.30 | 278997 | 288626 27 | 64:08.27 | 2:09.10 | 288627 | 298311 28 | 66:17.37 | 2:54.42 | 298312 | 311403
Характеристики диапазона извлечения и сообщения об ошибках
Выбранный диапазон
Имя файла H:\MP3\The Beatles Mono Box\Help!\The Beatles - Help! (MONO).wav
Пиковый уровень 96.4 % Качество диапазона 100.0 % CRC теста 44968FC0 CRC копии 44968FC0 Копирование... OK
Ошибок не произошло
AccurateRip: сводка
Трек 1 нет в базе данныхТрек 2 нет в базе данныхТрек 3 нет в базе данныхТрек 4 нет в базе данныхТрек 5 нет в базе данныхТрек 6 нет в базе данныхТрек 7 нет в базе данныхТрек 8 нет в базе данныхТрек 9 нет в базе данныхТрек 10 нет в базе данныхТрек 11 нет в базе данныхТрек 12 нет в базе данныхТрек 13 нет в базе данныхТрек 14 нет в базе данныхТрек 15 нет в базе данныхТрек 16 нет в базе данныхТрек 17 нет в базе данныхТрек 18 нет в базе данныхТрек 19 нет в базе данныхТрек 20 нет в базе данныхТрек 21 нет в базе данныхТрек 22 нет в базе данныхТрек 23 нет в базе данныхТрек 24 нет в базе данныхТрек 25 нет в базе данныхТрек 26 нет в базе данныхТрек 27 нет в базе данныхТрек 28 нет в базе данных
Ни одного трека нет в базе AccurateRip
Конец отчёта
01. Drive My Car
02. Norwegian Wood
03. You Won't See Me
04. Nowhere Man
05. Think For Yourself
06. The Word
07. Michelle
08. What Goes On
09. Girl
10. I'm Looking Through You
11. In My Life
12. Wait
13. If I Needed Someone
14. Run For Your Life
15. Drive My Car (1965 Stereo Mix)
16. Norwegian Wood (This Bird Has Flown) (1965 Stereo Mix)
17. You Won't See Me (1965 Stereo Mix)
18. Nowhere Man (1965 Stereo Mix)
19. Think For Yourself (1965 Stereo Mix)
20. The Word (1965 Stereo Mix)
21. Michelle (1965 Stereo Mix)
22. What Goes On (1965 Stereo Mix)
23. Girl (1965 Stereo Mix)
24. I'm Looking Through You (1965 Stereo Mix)
25. In My Life (1965 Stereo Mix)
26. Wait (1965 Stereo Mix)
27. If I Needed Someone (1965 Stereo Mix)
28. Run For Your Life (1965 Stereo Mix)

лог ЕАС

Exact Audio Copy V0.99 prebeta 5 from 4. May 2009
Отчёт EAC об извлечении, выполненном 17. октября 2009, 12:09
The Beatles / Rubber Soul (Mono)
Дисковод: MATSHITADVD-RAM UJ-850S Adapter: 1 ID: 0
Режим чтения : ДостоверностьИспользование точного потока : ДаОтключение кэша аудио : ДаИспользование указателей C2 : Нет
Коррекция смещения при чтении : 102Способность читать области Lead-in и Lead-out : НетЗаполнение пропущенных сэмплов тишиной : ДаУдаление блоков с тишиной в начале и конце : НетПри вычислениях CRC использовались нулевые сэмплы : ДаИнтерфейс : Встроенный Win32-интерфейс для Win NT/2000
Выходной формат : Пользовательский кодировщикВыбранный битрейт : 1024 kBit/sКачество : ВысокийДобавление ID3-тэга : НетУтилита сжатия : C:\Program Files\Exact Audio Copy\Flac\flac.exeДополнительные параметры : -8 -V -T "ARTIST=%a" -T "TITLE=%t" -T "ALBUM=%g" -T "DATE=%y" -T "TRACKNUMBER=%n" -T "TOTALTRACKS=%x" -T "GENRE=%m" -T "ALBUM ARTIST=%v" -T "ALBUMARTIST=%v" -T "COMMENT=EAC V0.99 prebeta 5, Secure Mode, AccurateRip, FLAC -8" %s
TOC извлечённого CD
Трек | Старт | Длительность | Начальный сектор | Конечный сектор --------------------------------------------------------------------- 1 | 0:00.00 | 2:33.68 | 0 | 11542 2 | 2:33.68 | 2:08.50 | 11543 | 21192 3 | 4:42.43 | 3:30.34 | 21193 | 36976 4 | 8:13.02 | 2:46.52 | 36977 | 49478 5 | 10:59.54 | 2:21.39 | 49479 | 60092 6 | 13:21.18 | 2:48.53 | 60093 | 72745 7 | 16:09.71 | 2:40.37 | 72746 | 84782 8 | 18:50.33 | 2:51.47 | 84783 | 97654 9 | 21:42.05 | 2:34.34 | 97655 | 109238 10 | 24:16.39 | 2:34.02 | 109239 | 120790 11 | 26:50.41 | 2:29.74 | 120791 | 132039 12 | 29:20.40 | 2:17.69 | 132040 | 142383 13 | 31:38.34 | 2:25.35 | 142384 | 153293 14 | 34:03.69 | 2:30.61 | 153294 | 164604 15 | 36:34.55 | 2:32.10 | 164605 | 176014 16 | 39:06.65 | 2:07.66 | 176015 | 185605 17 | 41:14.56 | 3:24.47 | 185606 | 200952 18 | 44:39.28 | 2:46.65 | 200953 | 213467 19 | 47:26.18 | 2:21.18 | 213468 | 224060 20 | 49:47.36 | 2:47.42 | 224061 | 236627 21 | 52:35.03 | 2:46.60 | 236628 | 249137 22 | 55:21.63 | 2:50.58 | 249138 | 261945 23 | 58:12.46 | 2:33.10 | 261946 | 273430 24 | 60:45.56 | 2:28.59 | 273431 | 284589 25 | 63:14.40 | 2:29.41 | 284590 | 295805 26 | 65:44.06 | 2:17.33 | 295806 | 306113 27 | 68:01.39 | 2:25.04 | 306114 | 316992 28 | 70:26.43 | 2:21.68 | 316993 | 327635
Характеристики диапазона извлечения и сообщения об ошибках
Выбранный диапазон
Имя файла H:\MP3\The Beatles Mono Box\Rubber Soul\The Beatles - Rubber Soul (Mono).wav
Пиковый уровень 98.8 % Качество диапазона 100.0 % CRC теста BC9AE9E7 CRC копии BC9AE9E7 Копирование... OK
Ошибок не произошло
AccurateRip: сводка
Трек 1 нет в базе данныхТрек 2 нет в базе данныхТрек 3 нет в базе данныхТрек 4 нет в базе данныхТрек 5 нет в базе данныхТрек 6 нет в базе данныхТрек 7 нет в базе данныхТрек 8 нет в базе данныхТрек 9 нет в базе данныхТрек 10 нет в базе данныхТрек 11 нет в базе данныхТрек 12 нет в базе данныхТрек 13 нет в базе данныхТрек 14 нет в базе данныхТрек 15 нет в базе данныхТрек 16 нет в базе данныхТрек 17 нет в базе данныхТрек 18 нет в базе данныхТрек 19 нет в базе данныхТрек 20 нет в базе данныхТрек 21 нет в базе данныхТрек 22 нет в базе данныхТрек 23 нет в базе данныхТрек 24 нет в базе данныхТрек 25 нет в базе данныхТрек 26 нет в базе данныхТрек 27 нет в базе данныхТрек 28 нет в базе данных
Ни одного трека нет в базе AccurateRip
Конец отчёта
01. Taxman
02. Eleanor Rigby
03. I'm Only Sleeping
04. Love You To
05. Here, There And Everywhere
06. Yellow Submarine
07. She Said She Said
08. Good Day Sunshine
09. And Your Bird Can Sing
10. For No One
11. Dr. Robert
12. I Want To Tell You
13. Got To Get You Into My Life
14. Tomorrow Never Knows

лог ЕАС

Exact Audio Copy V0.99 prebeta 5 from 4. May 2009
Отчёт EAC об извлечении, выполненном 17. октября 2009, 15:29
The Beatles / Revolver (MONO)
Дисковод: MATSHITADVD-RAM UJ-850S Adapter: 1 ID: 0
Режим чтения : ДостоверностьИспользование точного потока : ДаОтключение кэша аудио : ДаИспользование указателей C2 : Нет
Коррекция смещения при чтении : 102Способность читать области Lead-in и Lead-out : НетЗаполнение пропущенных сэмплов тишиной : ДаУдаление блоков с тишиной в начале и конце : НетПри вычислениях CRC использовались нулевые сэмплы : ДаИнтерфейс : Встроенный Win32-интерфейс для Win NT/2000
Выходной формат : Пользовательский кодировщикВыбранный битрейт : 1024 kBit/sКачество : ВысокийДобавление ID3-тэга : НетУтилита сжатия : C:\Program Files\Exact Audio Copy\Flac\flac.exeДополнительные параметры : -8 -V -T "ARTIST=%a" -T "TITLE=%t" -T "ALBUM=%g" -T "DATE=%y" -T "TRACKNUMBER=%n" -T "TOTALTRACKS=%x" -T "GENRE=%m" -T "ALBUM ARTIST=%v" -T "ALBUMARTIST=%v" -T "COMMENT=EAC V0.99 prebeta 5, Secure Mode, AccurateRip, FLAC -8" %s
TOC извлечённого CD
Трек | Старт | Длительность | Начальный сектор | Конечный сектор --------------------------------------------------------------------- 1 | 0:00.00 | 2:42.26 | 0 | 12175 2 | 2:42.26 | 2:09.35 | 12176 | 21885 3 | 4:51.61 | 3:03.01 | 21886 | 35611 4 | 7:54.62 | 3:07.44 | 35612 | 49680 5 | 11:02.31 | 2:25.66 | 49681 | 60621 6 | 13:28.22 | 2:41.72 | 60622 | 72768 7 | 16:10.19 | 2:39.35 | 72769 | 84728 8 | 18:49.54 | 2:12.21 | 84729 | 94649 9 | 21:02.00 | 2:02.62 | 94650 | 103861 10 | 23:04.62 | 2:02.20 | 103862 | 113031 11 | 25:07.07 | 2:16.63 | 113032 | 123294 12 | 27:23.70 | 2:31.38 | 123295 | 134657 13 | 29:55.33 | 2:38.51 | 134658 | 146558 14 | 32:34.09 | 2:57.57 | 146559 | 159890
Характеристики диапазона извлечения и сообщения об ошибках
Выбранный диапазон
Имя файла H:\MP3\The Beatles Mono Box\Revolver\The Beatles - Revolver (MONO).wav
Пиковый уровень 97.6 % Качество диапазона 99.9 % CRC теста DB678D81 CRC копии DB678D81 Копирование... OK
Ошибок не произошло
AccurateRip: сводка
Трек 1 нет в базе данныхТрек 2 нет в базе данныхТрек 3 нет в базе данныхТрек 4 нет в базе данныхТрек 5 нет в базе данныхТрек 6 нет в базе данныхТрек 7 нет в базе данныхТрек 8 нет в базе данныхТрек 9 нет в базе данныхТрек 10 нет в базе данныхТрек 11 нет в базе данныхТрек 12 нет в базе данныхТрек 13 нет в базе данныхТрек 14 нет в базе данных
Ни одного трека нет в базе AccurateRip
Конец отчёта
01. Sgt. Pepper's Lonely Hearts Club Band
02. With a Little Help from My Friends
03. Lucy in the Sky with Diamonds
04. Getting Better
05. Fixing a Hole
06. She's Leaving Home
07. Being for the Benefit of Mr. Kite!
08. Within You without You
09. When I'm Sixty-Four
10. Lovely Rita
11. Good Morning, Good Morning
12. Sgt. Pepper's Lonely Hearts Club Band (Reprise)
13. A Day in the Life

лог ЕАС

Exact Audio Copy V0.99 prebeta 5 from 4. May 2009
Отчёт EAC об извлечении, выполненном 17. октября 2009, 17:05
The Beatles / Sgt. Peppers Lonely Hearts Club Band [Mono]
Дисковод: MATSHITADVD-RAM UJ-850S Adapter: 1 ID: 0
Режим чтения : ДостоверностьИспользование точного потока : ДаОтключение кэша аудио : ДаИспользование указателей C2 : Нет
Коррекция смещения при чтении : 102Способность читать области Lead-in и Lead-out : НетЗаполнение пропущенных сэмплов тишиной : ДаУдаление блоков с тишиной в начале и конце : НетПри вычислениях CRC использовались нулевые сэмплы : ДаИнтерфейс : Встроенный Win32-интерфейс для Win NT/2000
Выходной формат : Пользовательский кодировщикВыбранный битрейт : 1024 kBit/sКачество : ВысокийДобавление ID3-тэга : НетУтилита сжатия : C:\Program Files\Exact Audio Copy\Flac\flac.exeДополнительные параметры : -8 -V -T "ARTIST=%a" -T "TITLE=%t" -T "ALBUM=%g" -T "DATE=%y" -T "TRACKNUMBER=%n" -T "TOTALTRACKS=%x" -T "GENRE=%m" -T "ALBUM ARTIST=%v" -T "ALBUMARTIST=%v" -T "COMMENT=EAC V0.99 prebeta 5, Secure Mode, AccurateRip, FLAC -8" %s
TOC извлечённого CD
Трек | Старт | Длительность | Начальный сектор | Конечный сектор --------------------------------------------------------------------- 1 | 0:00.00 | 2:02.38 | 0 | 9187 2 | 2:02.38 | 2:45.04 | 9188 | 21566 3 | 4:47.42 | 3:27.66 | 21567 | 37157 4 | 8:15.33 | 2:47.17 | 37158 | 49699 5 | 11:02.50 | 2:37.60 | 49700 | 61534 6 | 13:40.35 | 3:25.65 | 61535 | 76974 7 | 17:06.25 | 2:38.61 | 76975 | 88885 8 | 19:45.11 | 5:08.10 | 88886 | 111995 9 | 24:53.21 | 2:39.63 | 111996 | 123983 10 | 27:33.09 | 2:45.74 | 123984 | 136432 11 | 30:19.08 | 2:34.41 | 136433 | 148023 12 | 32:53.49 | 1:18.60 | 148024 | 153933 13 | 34:12.34 | 5:35.44 | 153934 | 179102
Характеристики диапазона извлечения и сообщения об ошибках
Выбранный диапазон
Имя файла H:\MP3\The Beatles Mono Box\Sgt.Peppers Lonely Heart Club Band\The Beatles - Sgt. Peppers Lonely Hearts Club Band [Mono].wav
Пиковый уровень 97.9 % Качество диапазона 100.0 % CRC теста 664117D6 CRC копии 664117D6 Копирование... OK
Ошибок не произошло
AccurateRip: сводка
Трек 1 нет в базе данныхТрек 2 нет в базе данныхТрек 3 нет в базе данныхТрек 4 нет в базе данныхТрек 5 нет в базе данныхТрек 6 нет в базе данныхТрек 7 нет в базе данныхТрек 8 нет в базе данныхТрек 9 нет в базе данныхТрек 10 нет в базе данныхТрек 11 нет в базе данныхТрек 12 нет в базе данныхТрек 13 нет в базе данных
Ни одного трека нет в базе AccurateRip
Конец отчёта
01. Magical Mystery Tour
02. The Fool on the Hill
03. Flying
04. Blue Jay Way
05. Your Mother Should Know
06. I Am the Walrus
07. Hello Goodbye
08. Strawberry Fields Forever
09. Penny Lane
10. Baby You're a Rich Man
11. All You Need Is Love

лог ЕАС

Exact Audio Copy V0.99 prebeta 5 from 4. May 2009
Отчёт EAC об извлечении, выполненном 17. октября 2009, 18:39
The Beatles / Magical Mystery Tour (Mono)
Дисковод: MATSHITADVD-RAM UJ-850S Adapter: 1 ID: 0
Режим чтения : ДостоверностьИспользование точного потока : ДаОтключение кэша аудио : ДаИспользование указателей C2 : Нет
Коррекция смещения при чтении : 102Способность читать области Lead-in и Lead-out : НетЗаполнение пропущенных сэмплов тишиной : ДаУдаление блоков с тишиной в начале и конце : НетПри вычислениях CRC использовались нулевые сэмплы : ДаИнтерфейс : Встроенный Win32-интерфейс для Win NT/2000
Выходной формат : Пользовательский кодировщикВыбранный битрейт : 1024 kBit/sКачество : ВысокийДобавление ID3-тэга : НетУтилита сжатия : C:\Program Files\Exact Audio Copy\Flac\flac.exeДополнительные параметры : -8 -V -T "ARTIST=%a" -T "TITLE=%t" -T "ALBUM=%g" -T "DATE=%y" -T "TRACKNUMBER=%n" -T "TOTALTRACKS=%x" -T "GENRE=%m" -T "ALBUM ARTIST=%v" -T "ALBUMARTIST=%v" -T "COMMENT=EAC V0.99 prebeta 5, Secure Mode, AccurateRip, FLAC -8" %s
TOC извлечённого CD
Трек | Старт | Длительность | Начальный сектор | Конечный сектор --------------------------------------------------------------------- 1 | 0:00.00 | 2:52.05 | 0 | 12904 2 | 2:52.05 | 3:00.18 | 12905 | 26422 3 | 5:52.23 | 2:16.48 | 26423 | 36670 4 | 8:08.71 | 3:56.54 | 36671 | 54424 5 | 12:05.50 | 2:30.69 | 54425 | 65743 6 | 14:36.44 | 4:36.14 | 65744 | 86457 7 | 19:12.58 | 3:30.72 | 86458 | 102279 8 | 22:43.55 | 4:10.32 | 102280 | 121061 9 | 26:54.12 | 3:03.62 | 121062 | 134848 10 | 29:57.74 | 3:08.61 | 134849 | 149009 11 | 33:06.60 | 3:58.41 | 149010 | 166900
Характеристики диапазона извлечения и сообщения об ошибках
Выбранный диапазон
Имя файла H:\MP3\The Beatles Mono Box\Magical Mystery Tour\The Beatles - Magical Mystery Tour (Mono).wav
Пиковый уровень 98.5 % Качество диапазона 100.0 % CRC теста F6D3603B CRC копии F6D3603B Копирование... OK
Ошибок не произошло
AccurateRip: сводка
Трек 1 нет в базе данныхТрек 2 нет в базе данныхТрек 3 нет в базе данныхТрек 4 нет в базе данныхТрек 5 нет в базе данныхТрек 6 нет в базе данныхТрек 7 нет в базе данныхТрек 8 нет в базе данныхТрек 9 нет в базе данныхТрек 10 нет в базе данныхТрек 11 нет в базе данных
Ни одного трека нет в базе AccurateRip
Конец отчёта
Disc1:
01. Back In The U.S.S.R.
02. Dear Prudence
03. Glass Onion
04. Ob-La-Di, Ob-La-Da
05. Wild Honey Pie
06. The Continuing Story Of Bungalow Bill
07. While My Guitar Gently Weeps
08. Happiness Is A Warm Gun
09. Martha My Dear
10. I'm So Tired
11. Blackbird
12. Piggies
13. Rocky Racoon
14. Don't Pass Me By
15. Why Don't We Do It In The Road?
16. I Will
17. JuliaDisc2:
01. Birthday
02. Yer Blues
03. Mother Nature's Son
04. Everybody's Got Something to Hide Except Me and My Monkey
05. Sexy Sadie
06. Helter Skelter
07. Long, Long, Long
08. Revolution I09. Honey Pie
10. Savoy Truffle
11. Cry Baby Cry
12. Revolution 9
13. Good Night

лог ЕАС Disc1

Exact Audio Copy V0.99 prebeta 5 from 4. May 2009
Отчёт EAC об извлечении, выполненном 17. октября 2009, 20:47
The Beatles / The Beatles (White Album)(CD1)(MONO)
Дисковод: MATSHITADVD-RAM UJ-850S Adapter: 1 ID: 0
Режим чтения : ДостоверностьИспользование точного потока : ДаОтключение кэша аудио : ДаИспользование указателей C2 : Нет
Коррекция смещения при чтении : 102Способность читать области Lead-in и Lead-out : НетЗаполнение пропущенных сэмплов тишиной : ДаУдаление блоков с тишиной в начале и конце : НетПри вычислениях CRC использовались нулевые сэмплы : ДаИнтерфейс : Встроенный Win32-интерфейс для Win NT/2000
Выходной формат : Пользовательский кодировщикВыбранный битрейт : 1024 kBit/sКачество : ВысокийДобавление ID3-тэга : НетУтилита сжатия : C:\Program Files\Exact Audio Copy\Flac\flac.exeДополнительные параметры : -8 -V -T "ARTIST=%a" -T "TITLE=%t" -T "ALBUM=%g" -T "DATE=%y" -T "TRACKNUMBER=%n" -T "TOTALTRACKS=%x" -T "GENRE=%m" -T "ALBUM ARTIST=%v" -T "ALBUMARTIST=%v" -T "COMMENT=EAC V0.99 prebeta 5, Secure Mode, AccurateRip, FLAC -8" %s
TOC извлечённого CD
Трек | Старт | Длительность | Начальный сектор | Конечный сектор --------------------------------------------------------------------- 1 | 0:00.00 | 2:44.03 | 0 | 12302 2 | 2:44.03 | 3:54.10 | 12303 | 29862 3 | 6:38.13 | 2:17.54 | 29863 | 40191 4 | 8:55.67 | 3:09.31 | 40192 | 54397 5 | 12:05.23 | 0:54.07 | 54398 | 58454 6 | 12:59.30 | 3:14.15 | 58455 | 73019 7 | 16:13.45 | 4:47.69 | 73020 | 94613 8 | 21:01.39 | 2:44.31 | 94614 | 106944 9 | 23:45.70 | 2:28.23 | 106945 | 118067 10 | 26:14.18 | 2:03.23 | 118068 | 127315 11 | 28:17.41 | 2:18.69 | 127316 | 137734 12 | 30:36.35 | 2:03.09 | 137735 | 146968 13 | 32:39.44 | 3:32.49 | 146969 | 162917 14 | 36:12.18 | 3:45.38 | 162918 | 179830 15 | 39:57.56 | 1:41.45 | 179831 | 187450 16 | 41:39.26 | 1:45.06 | 187451 | 195331 17 | 43:24.32 | 2:53.71 | 195332 | 208377
Характеристики диапазона извлечения и сообщения об ошибках
Выбранный диапазон
Имя файла H:\MP3\The Beatles Mono Box\The Beatles (White Album)\disc1\The Beatles - The Beatles (White Album)(CD1)(MONO).wav
Пиковый уровень 97.9 % Качество диапазона 99.9 % CRC теста 55C7E53F CRC копии 55C7E53F Копирование... OK
Ошибок не произошло
AccurateRip: сводка
Трек 1 нет в базе данныхТрек 2 нет в базе данныхТрек 3 нет в базе данныхТрек 4 нет в базе данныхТрек 5 нет в базе данныхТрек 6 нет в базе данныхТрек 7 нет в базе данныхТрек 8 нет в базе данныхТрек 9 нет в базе данныхТрек 10 нет в базе данныхТрек 11 нет в базе данныхТрек 12 нет в базе данныхТрек 13 нет в базе данныхТрек 14 нет в базе данныхТрек 15 нет в базе данныхТрек 16 нет в базе данныхТрек 17 нет в базе данных
Ни одного трека нет в базе AccurateRip
Конец отчёта
Exact Audio Copy V0.99 prebeta 5 from 4. May 2009
Отчёт EAC об извлечении, выполненном 17. октября 2009, 22:48
The Beatles / Beatles, The (White Album)
Дисковод: MATSHITADVD-RAM UJ-850S Adapter: 1 ID: 0
Режим чтения : ДостоверностьИспользование точного потока : ДаОтключение кэша аудио : ДаИспользование указателей C2 : Нет
Коррекция смещения при чтении : 102Способность читать области Lead-in и Lead-out : НетЗаполнение пропущенных сэмплов тишиной : ДаУдаление блоков с тишиной в начале и конце : НетПри вычислениях CRC использовались нулевые сэмплы : ДаИнтерфейс : Встроенный Win32-интерфейс для Win NT/2000
Выходной формат : Пользовательский кодировщикВыбранный битрейт : 1024 kBit/sКачество : ВысокийДобавление ID3-тэга : НетУтилита сжатия : C:\Program Files\Exact Audio Copy\Flac\flac.exeДополнительные параметры : -8 -V -T "ARTIST=%a" -T "TITLE=%t" -T "ALBUM=%g" -T "DATE=%y" -T "TRACKNUMBER=%n" -T "TOTALTRACKS=%x" -T "GENRE=%m" -T "ALBUM ARTIST=%v" -T "ALBUMARTIST=%v" -T "COMMENT=EAC V0.99 prebeta 5, Secure Mode, AccurateRip, FLAC -8" %s
TOC извлечённого CD
Трек | Старт | Длительность | Начальный сектор | Конечный сектор --------------------------------------------------------------------- 1 | 0:00.00 | 2:42.49 | 0 | 12198 2 | 2:42.49 | 4:13.45 | 12199 | 31218 3 | 6:56.19 | 2:46.22 | 31219 | 43690 4 | 9:42.41 | 2:25.08 | 43691 | 54573 5 | 12:07.49 | 3:14.71 | 54574 | 69194 6 | 15:22.45 | 3:39.13 | 69195 | 85632 7 | 19:01.58 | 3:05.34 | 85633 | 99541 8 | 22:07.17 | 4:15.49 | 99542 | 118715 9 | 26:22.66 | 2:40.39 | 118716 | 130754 10 | 29:03.30 | 2:54.06 | 130755 | 143810 11 | 31:57.36 | 3:01.48 | 143811 | 157433 12 | 34:59.09 | 8:23.13 | 157434 | 195171 13 | 43:22.22 | 3:12.71 | 195172 | 209642
Характеристики диапазона извлечения и сообщения об ошибках
Выбранный диапазон
Имя файла H:\MP3\The Beatles Mono Box\The Beatles (White Album)\disc2\The Beatles - Beatles, The (White Album) Disc 2.wav
Пиковый уровень 97.3 % Качество диапазона 100.0 % CRC теста 10B9351D CRC копии 10B9351D Копирование... OK
Ошибок не произошло
AccurateRip: сводка
Трек 1 нет в базе данныхТрек 2 нет в базе данныхТрек 3 нет в базе данныхТрек 4 нет в базе данныхТрек 5 нет в базе данныхТрек 6 нет в базе данныхТрек 7 нет в базе данныхТрек 8 нет в базе данныхТрек 9 нет в базе данныхТрек 10 нет в базе данныхТрек 11 нет в базе данныхТрек 12 нет в базе данныхТрек 13 нет в базе данных
Ни одного трека нет в базе AccurateRip
Конец отчёта Disc1:
01. Love Me Do [Original Single Version]
02. From Me to You
03. Thank You Girl
04. She Loves You
05. I'll Get You
06. I Want to Hold Your Hand
07. This Boy
08. Komm, Gib Mir Deine Hand
09. Sie Liebt Dich
10. Long Tall Sally
11. I Call Your Name
12. Slow Down
13. Matchbox
14. I Feel Fine
15. She's a Woman
16. Bad Boy
17. Yes It Is
18. I'm DownDisc2:
01. Day Tripper
02. We Can Work It Out
03. Paperback Writer
04. Rain
05. Lady Madonna
06. The Inner Light
07. Hey Jude
08. Revolution
09. Only a Northern Song
10. All Together Now
11. Hey Bulldog
12. It's All Too Much
13. Get Back (with Billy Preston)
14. Don't Let Me Down (with Billy Preston)
15. Across the Universe
16. You Know My Name (Look Up the Number)

лог ЕАС Disc1

Exact Audio Copy V0.99 prebeta 5 from 4. May 2009
Отчёт EAC об извлечении, выполненном 18. октября 2009, 8:33
The Beatles / Mono Masters (CD1)(MONO)
Дисковод: MATSHITADVD-RAM UJ-850S Adapter: 1 ID: 0
Режим чтения : ДостоверностьИспользование точного потока : ДаОтключение кэша аудио : ДаИспользование указателей C2 : Нет
Коррекция смещения при чтении : 102Способность читать области Lead-in и Lead-out : НетЗаполнение пропущенных сэмплов тишиной : ДаУдаление блоков с тишиной в начале и конце : НетПри вычислениях CRC использовались нулевые сэмплы : ДаИнтерфейс : Встроенный Win32-интерфейс для Win NT/2000
Выходной формат : Пользовательский кодировщикВыбранный битрейт : 1024 kBit/sКачество : ВысокийДобавление ID3-тэга : НетУтилита сжатия : C:\Program Files\Exact Audio Copy\Flac\flac.exeДополнительные параметры : -8 -V -T "ARTIST=%a" -T "TITLE=%t" -T "ALBUM=%g" -T "DATE=%y" -T "TRACKNUMBER=%n" -T "TOTALTRACKS=%x" -T "GENRE=%m" -T "ALBUM ARTIST=%v" -T "ALBUMARTIST=%v" -T "COMMENT=EAC V0.99 prebeta 5, Secure Mode, AccurateRip, FLAC -8" %s
TOC извлечённого CD
Трек | Старт | Длительность | Начальный сектор | Конечный сектор --------------------------------------------------------------------- 1 | 0:00.00 | 2:24.65 | 0 | 10864 2 | 2:24.65 | 1:57.01 | 10865 | 19640 3 | 4:21.66 | 2:03.54 | 19641 | 28919 4 | 6:25.45 | 2:21.32 | 28920 | 39526 5 | 8:47.02 | 2:05.73 | 39527 | 48974 6 | 10:53.00 | 2:26.37 | 48975 | 59961 7 | 13:19.37 | 2:16.08 | 59962 | 70169 8 | 15:35.45 | 2:25.56 | 70170 | 81100 9 | 18:01.26 | 2:19.33 | 81101 | 91558 10 | 20:20.59 | 2:02.70 | 91559 | 100778 11 | 22:23.54 | 2:11.15 | 100779 | 110618 12 | 24:34.69 | 2:57.15 | 110619 | 123908 13 | 27:32.09 | 1:58.49 | 123909 | 132807 14 | 29:30.58 | 2:23.06 | 132808 | 143538 15 | 31:53.64 | 3:03.63 | 143539 | 157326 16 | 34:57.52 | 2:19.41 | 157327 | 167792 17 | 37:17.18 | 2:42.02 | 167793 | 179944 18 | 39:59.20 | 2:37.55 | 179945 | 191774
Характеристики диапазона извлечения и сообщения об ошибках
Выбранный диапазон
Имя файла H:\MP3\The Beatles Mono Box\2009-Mono Masters\disc1\The Beatles - Mono Masters (CD1)(MONO).wav
Пиковый уровень 99.8 % Качество диапазона 100.0 % CRC теста F3C61C40 CRC копии F3C61C40 Копирование... OK
Ошибок не произошло
AccurateRip: сводка
Трек 1 нет в базе данныхТрек 2 нет в базе данныхТрек 3 нет в базе данныхТрек 4 нет в базе данныхТрек 5 нет в базе данныхТрек 6 нет в базе данныхТрек 7 нет в базе данныхТрек 8 нет в базе данныхТрек 9 нет в базе данныхТрек 10 нет в базе данныхТрек 11 нет в базе данныхТрек 12 нет в базе данныхТрек 13 нет в базе данныхТрек 14 нет в базе данныхТрек 15 нет в базе данныхТрек 16 нет в базе данныхТрек 17 нет в базе данныхТрек 18 нет в базе данных
Ни одного трека нет в базе AccurateRip
Конец отчёта

лог ЕАС Disc2

Exact Audio Copy V0.99 prebeta 5 from 4. May 2009
Отчёт EAC об извлечении, выполненном 18. октября 2009, 10:41
The Beatles / Mono Masters
Дисковод: MATSHITADVD-RAM UJ-850S Adapter: 1 ID: 0
Режим чтения : ДостоверностьИспользование точного потока : ДаОтключение кэша аудио : ДаИспользование указателей C2 : Нет
Коррекция смещения при чтении : 102Способность читать области Lead-in и Lead-out : НетЗаполнение пропущенных сэмплов тишиной : ДаУдаление блоков с тишиной в начале и конце : НетПри вычислениях CRC использовались нулевые сэмплы : ДаИнтерфейс : Встроенный Win32-интерфейс для Win NT/2000
Выходной формат : Пользовательский кодировщикВыбранный битрейт : 1024 kBit/sКачество : ВысокийДобавление ID3-тэга : НетУтилита сжатия : C:\Program Files\Exact Audio Copy\Flac\flac.exeДополнительные параметры : -8 -V -T "ARTIST=%a" -T "TITLE=%t" -T "ALBUM=%g" -T "DATE=%y" -T "TRACKNUMBER=%n" -T "TOTALTRACKS=%x" -T "GENRE=%m" -T "ALBUM ARTIST=%v" -T "ALBUMARTIST=%v" -T "COMMENT=EAC V0.99 prebeta 5, Secure Mode, AccurateRip, FLAC -8" %s
TOC извлечённого CD
Трек | Старт | Длительность | Начальный сектор | Конечный сектор --------------------------------------------------------------------- 1 | 0:00.00 | 2:52.34 | 0 | 12933 2 | 2:52.34 | 2:15.16 | 12934 | 23074 3 | 5:07.50 | 2:25.54 | 23075 | 34003 4 | 7:33.29 | 3:01.32 | 34004 | 47610 5 | 10:34.61 | 2:17.20 | 47611 | 57905 6 | 12:52.06 | 2:36.33 | 57906 | 69638 7 | 15:28.39 | 7:19.53 | 69639 | 102616 8 | 22:48.17 | 3:24.41 | 102617 | 117957 9 | 26:12.58 | 3:25.69 | 117958 | 133401 10 | 29:38.52 | 2:11.34 | 133402 | 143260 11 | 31:50.11 | 3:14.34 | 143261 | 157844 12 | 35:04.45 | 6:22.03 | 157845 | 186497 13 | 41:26.48 | 3:11.20 | 186498 | 200842 14 | 44:37.68 | 3:32.69 | 200843 | 216811 15 | 48:10.62 | 3:49.63 | 216812 | 234049 16 | 52:00.50 | 4:24.24 | 234050 | 253873
Характеристики диапазона извлечения и сообщения об ошибках
Выбранный диапазон
Имя файла H:\MP3\The Beatles Mono Box\2009-Mono Masters\disc2\The Beatles - Mono Masters.wav
Пиковый уровень 99.8 % Качество диапазона 100.0 % CRC теста F0A021DC CRC копии F0A021DC Копирование... OK
Ошибок не произошло
AccurateRip: сводка
Трек 1 нет в базе данныхТрек 2 нет в базе данныхТрек 3 нет в базе данныхТрек 4 нет в базе данныхТрек 5 нет в базе данныхТрек 6 нет в базе данныхТрек 7 нет в базе данныхТрек 8 нет в базе данныхТрек 9 нет в базе данныхТрек 10 нет в базе данныхТрек 11 нет в базе данныхТрек 12 нет в базе данныхТрек 13 нет в базе данныхТрек 14 нет в базе данныхТрек 15 нет в базе данныхТрек 16 нет в базе данных
Ни одного трека нет в базе AccurateRip
Конец отчёта

OBI

[Цитировать]



Показать сообщения:    

Текущее время: 09-Дек 04:51

Часовой пояс: UTC + 3


Вы не можете начинать темы
Вы не можете отвечать на сообщения
Вы не можете редактировать свои сообщения
Вы не можете удалять свои сообщения
Вы не можете голосовать в опросах
Вы не можете прикреплять файлы к сообщениям
Вы не можете скачивать файлы

!ВНИМАНИЕ!
Сайт не предоставляет электронные версии произведений, а занимается лишь коллекционированием и каталогизацией ссылок, присылаемых и публикуемых на форуме нашими читателями. Если вы являетесь правообладателем какого-либо представленного материала и не желаете, чтобы ссылка на него находилась в нашем каталоге, свяжитесь с нами, и мы незамедлительно удалим ее. Файлы для обмена на трекере предоставлены пользователями сайта, и администрация не несет ответственности за их содержание. Просьба не заливать файлы, защищенные авторскими правами, а также файлы нелегального содержания!