[ Сегодня идет свободное скачивание без начисления Download ]


Статистика раздачи
Нет
 
   
 
Top  
 
 
Соус / Gravy (2015) BDRip 720p Информация о фильме
Название: Соус
Оригинальное название: Gravy
Год выхода: 2015
Жанр: комедия, ужасы
Режиссер: Джеймс Родэй
В ролях: Лотер Блюто, Лили Коул, Молли Эфраим, Саттон Фостер, Стефани Е. Фрейм, Дьюли Хилл, Гэбриел Луна, Джеймс Родэй, Пол Родригес, Кейт Рогал
О фильме: Трое выряженных придурков со специфическими предпочтениями в еде облюбовывают мексиканское бистро. Персонал вынужден поздней ночью принимать участие в развлекательной программе гурманов, включающей в себя игры, возлияния и трапезу. Единственный остренький вопрос этого вечера — что же сегодня в меню?

Выпущено: США / Siren Digital - Hollywood, TapouT Films
Продолжительность: 01:38:29
Озвучивание: Любительское (одноголосое) [Хихикающий доктор]
Файл
Формат: MKV
Качество: BDRip 720p
Видео: MPEG-4 AVC, 4844 kb/s, 1280x544
Аудио: Russian: AC3, 192 kb/s (2 ch) / English: DTS, 1510 kb/s (6 ch)

MI

Format : Matroska
Format version : Version 2
File size : 4.50 GiB
Duration : 1h 38mn
Overall bit rate : 6 556 Kbps
Encoded date : UTC 2016-01-03 00:06:18
Writing application : mkvmerge v7.8.0 ('River Man') 32bit built on Apr 3 2015 12:11:22
Writing library : libebml v1.3.1 + libmatroska v1.4.2
Video
ID : 1
Format : AVC
Format/Info : Advanced Video Codec
Format profile : [email protected]
Format settings, CABAC : Yes
Format settings, ReFrames : 5 frames
Codec ID : V_MPEG4/ISO/AVC
Duration : 1h 38mn
Bit rate : 4 844 Kbps
Width : 1 280 pixels
Height : 544 pixels
Display aspect ratio : 2.35:1
Frame rate mode : Constant
Frame rate : 23.976 fps
Color space : YUV
Chroma subsampling : 4:2:0
Bit depth : 8 bits
Scan type : Progressive
Bits/(Pixel*Frame) : 0.290
Stream size : 3.24 GiB (72%)
Writing library : x264 core 148 r2597 e86f3a1
Encoding settings : cabac=1 / ref=5 / deblock=1:0:0 / analyse=0x3:0x133 / me=umh / subme=7 / psy=1 / psy_rd=1.00:0.00 / mixed_ref=1 / me_range=16 / chroma_me=1 / trellis=1 / 8x8dct=1 / cqm=0 / deadzone=21,11 / fast_pskip=0 / chroma_qp_offset=-2 / threads=17 / lookahead_threads=2 / sliced_threads=0 / nr=0 / decimate=1 / interlaced=0 / bluray_compat=0 / constrained_intra=0 / bframes=3 / b_pyramid=2 / b_adapt=1 / b_bias=0 / direct=1 / weightb=1 / open_gop=0 / weightp=2 / keyint=250 / keyint_min=23 / scenecut=40 / intra_refresh=0 / rc_lookahead=40 / rc=2pass / mbtree=1 / bitrate=4844 / ratetol=1.0 / qcomp=0.60 / qpmin=0 / qpmax=69 / qpstep=4 / cplxblur=20.0 / qblur=0.5 / ip_ratio=1.40 / aq=1:1.00
Language : English
Default : Yes
Forced : No
Audio #1
ID : 2
Format : AC-3
Format/Info : Audio Coding 3
Mode extension : CM (complete main)
Format settings, Endianness : Big
Codec ID : A_AC3
Duration : 1h 38mn
Bit rate mode : Constant
Bit rate : 192 Kbps
Channel(s) : 2 channels
Channel positions : Front: L R
Sampling rate : 48.0 KHz
Bit depth : 16 bits
Compression mode : Lossy
Stream size : 135 MiB (3%)
Language : Russian
Default : Yes
Forced : No
Audio #2
ID : 3
Format : DTS
Format/Info : Digital Theater Systems
Mode : 16
Format settings, Endianness : Big
Codec ID : A_DTS
Duration : 1h 38mn
Bit rate mode : Constant
Bit rate : 1 509 Kbps
Channel(s) : 6 channels
Channel positions : Front: L C R, Side: L R, LFE
Sampling rate : 48.0 KHz
Bit depth : 24 bits
Compression mode : Lossy
Stream size : 1.04 GiB (23%)
Language : English
Default : No
Forced : No
Menu
00:00:00.000 : en:00:00:00.000
00:11:09.627 : en:00:11:09.627
00:17:27.213 : en:00:17:27.213
00:31:25.759 : en:00:31:25.759
00:42:10.903 : en:00:42:10.903
00:57:19.019 : en:00:57:19.019
01:06:01.708 : en:01:06:01.708
01:20:41.670 : en:01:20:41.670
01:30:13.408 : en:01:30:13.408
01:34:13.565 : en:01:34:13.565

Скриншоты

[Цитировать]



Показать сообщения:    

Текущее время: 05-Дек 19:42

Часовой пояс: UTC + 3


Вы не можете начинать темы
Вы не можете отвечать на сообщения
Вы не можете редактировать свои сообщения
Вы не можете удалять свои сообщения
Вы не можете голосовать в опросах
Вы не можете прикреплять файлы к сообщениям
Вы не можете скачивать файлы

!ВНИМАНИЕ!
Сайт не предоставляет электронные версии произведений, а занимается лишь коллекционированием и каталогизацией ссылок, присылаемых и публикуемых на форуме нашими читателями. Если вы являетесь правообладателем какого-либо представленного материала и не желаете, чтобы ссылка на него находилась в нашем каталоге, свяжитесь с нами, и мы незамедлительно удалим ее. Файлы для обмена на трекере предоставлены пользователями сайта, и администрация не несет ответственности за их содержание. Просьба не заливать файлы, защищенные авторскими правами, а также файлы нелегального содержания!