[ Сегодня идет свободное скачивание без начисления Download ]


Статистика раздачи
Скачал: [ 1 ]
 
   
 
Top  
 
 
Приговорённые 2: Охота в пустыне / The Condemned 2: Desert Prey (2015) HDRip-AVC Информация о фильме
Название: Приговорённые 2: Охота в пустыне
Оригинальное название: The Condemned 2: Desert Prey
Год выхода: 2015
Жанр: боевик
Режиссер: Роэль Рейн
В ролях: Уэс Стьюди, Стивен Майкл Квезада, Рэнди Ортон, Дилан Кенин, Моник Канделария, Майкл Шитс, Мартин Палмер, Стэффорд Дуглас, Алекс Найт, Марк Сивертсен
О фильме: Уилл Таннер из тех, кто выбрал для себя «профессию» охотников за головами. Однажды он попадает в серьезные неприятности, задержан полицией и получает приговор. Его и бывшую его команду вовлекают в игру на выживание под объективами камер в угоду интересам благополучной публики. Ставки сделаны, приговоренные должны проявить в жестких обстоятельствах максимум своих способностей сражаться и избегать ловушек, выносливость и изобретательность. Песчаный ад может дать шанс жить дальше…

Выпущено: США / WWE Studios
Продолжительность: 01:30:14
Озвучивание: Любительское (одноголосое) [Павел Морозов aka PashaUp], перевод [Enigma]
Файл
Качество: HDRip \(AVC\)
Видео: MPEG-4 AVC, 2378 Кбит/с, 1024x576
Аудио: Русский (АС3, 2 ch, 192 Кбит/с), английский (AC3, 6 ch, 448 Кбит/с)
Субтитры: Английские

MI

General
Unique ID : 255151903959471123523919030686319396148 (0xBFF4781ED2429C80AF1B931D3AEC4534)
Complete name : C:The.Condemned.2.2015.PashaUp.HDRip.AVC.ExKinoRay.mkv
Format : Matroska
Format version : Version 4 / Version 2
File size : 1.90 GiB
Duration : 1h 30mn
Overall bit rate : 3 017 Kbps
Movie name : The Condemned 2 2015 from ExKinoRay
Encoded date : UTC 2016-01-02 01:38:52
Writing application : mkvmerge v6.6.0 ('The Edge Of The In Between') built on Dec 1 2013 17:55:00
Writing library : libebml v1.3.0 + libmatroska v1.4.1
Video
ID : 1
Format : AVC
Format/Info : Advanced Video Codec
Format profile : High@L4.1
Format settings, CABAC : Yes
Format settings, ReFrames : 10 frames
Codec ID : V_MPEG4/ISO/AVC
Duration : 1h 30mn
Bit rate : 2 378 Kbps
Width : 1 024 pixels
Height : 576 pixels
Display aspect ratio : 16:9
Frame rate mode : Constant
Frame rate : 23.976 fps
Color space : YUV
Chroma subsampling : 4:2:0
Bit depth : 8 bits
Scan type : Progressive
Bits/(Pixel*Frame) : 0.168
Stream size : 1.46 GiB (77%)
Title : Enigma
Writing library : x264 core 133 r2334 a3ac64b
Encoding settings : cabac=1 / ref=10 / deblock=1:-2:-2 / analyse=0x3:0x113 / me=umh / subme=10 / psy=1 / psy_rd=1.05:0.15 / mixed_ref=1 / me_range=32 / chroma_me=1 / trellis=2 / 8x8dct=1 / cqm=0 / deadzone=21,11 / fast_pskip=0 / chroma_qp_offset=-3 / threads=12 / lookahead_threads=2 / sliced_threads=0 / nr=0 / decimate=0 / interlaced=0 / bluray_compat=0 / constrained_intra=0 / bframes=9 / b_pyramid=2 / b_adapt=2 / b_bias=0 / direct=3 / weightb=1 / open_gop=0 / weightp=2 / keyint=240 / keyint_min=23 / scenecut=40 / intra_refresh=0 / rc_lookahead=40 / rc=2pass / mbtree=0 / bitrate=2378 / ratetol=1.0 / qcomp=0.65 / qpmin=0 / qpmax=51 / qpstep=4 / cplxblur=20.0 / qblur=0.5 / vbv_maxrate=50000 / vbv_bufsize=62500 / nal_hrd=none / ip_ratio=1.40 / pb_ratio=1.30 / aq=1:1.00
Language : English
Default : Yes
Forced : No
Color primaries : BT.709
Transfer characteristics : BT.709
Matrix coefficients : BT.709
Audio #1
ID : 2
Format : AC-3
Format/Info : Audio Coding 3
Mode extension : CM (complete main)
Format settings, Endianness : Big
Codec ID : A_AC3
Duration : 1h 30mn
Bit rate mode : Constant
Bit rate : 192 Kbps
Channel(s) : 2 channels
Channel positions : Front: L R
Sampling rate : 48.0 KHz
Bit depth : 16 bits
Compression mode : Lossy
Stream size : 124 MiB (6%)
Title : VO (PashaUp)
Language : Russian
Default : Yes
Forced : No
Audio #2
ID : 3
Format : AC-3
Format/Info : Audio Coding 3
Mode extension : CM (complete main)
Format settings, Endianness : Big
Codec ID : A_AC3
Duration : 1h 30mn
Bit rate mode : Constant
Bit rate : 448 Kbps
Channel(s) : 6 channels
Channel positions : Front: L C R, Side: L R, LFE
Sampling rate : 48.0 KHz
Bit depth : 16 bits
Compression mode : Lossy
Stream size : 289 MiB (15%)
Language : English
Default : No
Forced : No
Text
ID : 4
Format : UTF-8
Codec ID : S_TEXT/UTF8
Codec ID/Info : UTF-8 Plain Text
Language : English
Default : No
Forced : No
Menu
00:00:00.000 : en:00:00:00.000
00:05:10.268 : en:00:05:10.268
00:10:51.693 : en:00:10:51.693
00:16:40.958 : en:00:16:40.958
00:24:10.824 : en:00:24:10.824
00:29:33.063 : en:00:29:33.063
00:35:30.712 : en:00:35:30.712
00:40:32.096 : en:00:40:32.096
00:46:27.910 : en:00:46:27.910
00:50:58.847 : en:00:50:58.847
00:58:51.236 : en:00:58:51.236
01:05:29.134 : en:01:05:29.134
01:09:39.634 : en:01:09:39.634
01:13:52.803 : en:01:13:52.803
01:18:19.862 : en:01:18:19.862
01:23:30.255 : en:01:23:30.255

[Цитировать]



Показать сообщения:    

Текущее время: 11-Дек 01:29

Часовой пояс: UTC + 3


Вы не можете начинать темы
Вы не можете отвечать на сообщения
Вы не можете редактировать свои сообщения
Вы не можете удалять свои сообщения
Вы не можете голосовать в опросах
Вы не можете прикреплять файлы к сообщениям
Вы не можете скачивать файлы

!ВНИМАНИЕ!
Сайт не предоставляет электронные версии произведений, а занимается лишь коллекционированием и каталогизацией ссылок, присылаемых и публикуемых на форуме нашими читателями. Если вы являетесь правообладателем какого-либо представленного материала и не желаете, чтобы ссылка на него находилась в нашем каталоге, свяжитесь с нами, и мы незамедлительно удалим ее. Файлы для обмена на трекере предоставлены пользователями сайта, и администрация не несет ответственности за их содержание. Просьба не заливать файлы, защищенные авторскими правами, а также файлы нелегального содержания!